<?xml version="1.0" standalone="no"?>
<!DOCTYPE svg PUBLIC "-//W3C//DTD SVG 1.1//EN" "http://www.w3.org/Graphics/SVG/1.1/DTD/svg11.dtd" >
<svg xmlns="http://www.w3.org/2000/svg">
<metadata></metadata>
<defs>
<font id="smokefreesylviabold" horiz-adv-x="1247" >
<font-face units-per-em="2048" ascent="1638" descent="-410" />
<missing-glyph horiz-adv-x="409" />
<glyph horiz-adv-x="2048" />
<glyph horiz-adv-x="2048" />
<glyph unicode="&#xd;" horiz-adv-x="1024" />
<glyph unicode=" "  horiz-adv-x="409" />
<glyph unicode="&#x09;" horiz-adv-x="409" />
<glyph unicode="&#xa0;" horiz-adv-x="409" />
<glyph unicode="!" horiz-adv-x="659" d="M123 174q0 86 60.5 146.5t146.5 60.5t146.5 -60.5t60.5 -146.5t-60.5 -146.5t-146.5 -60.5t-146.5 60.5t-60.5 146.5zM184 684v705q0 63 40 103t104 40q63 0 103 -40t40 -103v-705q0 -63 -40 -103t-103 -40t-103.5 40t-40.5 103z" />
<glyph unicode="&#x22;" horiz-adv-x="1024" d="M143 913v445q0 63 40 103t104 40q63 0 103 -40t40 -103v-445q0 -63 -40 -103t-103 -40t-103.5 40t-40.5 103zM594 913v445q0 63 40 103t103 40t103.5 -40t40.5 -103v-445q0 -63 -40 -103t-104 -40q-63 0 -103 40t-40 103z" />
<glyph unicode="#" horiz-adv-x="1339" d="M0 532q0 63 40 103.5t103 40.5h158l27 115h-88q-63 0 -103.5 39.5t-40.5 103.5q0 63 40 103t104 40h155l74 301q27 111 135 111q61 0 104.5 -39t43.5 -100q0 -23 -4 -39l-58 -234h123l72 301q27 111 135 111q61 0 104 -39t43 -100v-19q0 -10 -4 -20l-55 -234h88 q63 0 103 -40t40 -103t-39.5 -103t-103.5 -40h-158l-26 -115h88q63 0 103 -40t40 -104q0 -63 -40 -103t-103 -40h-158l-72 -301q-27 -111 -135 -111q-61 0 -104 39t-43 101q0 23 4 39l57 233h-123l-71 -301q-27 -111 -136 -111q-61 0 -105 39t-44 101q0 12 6 39l55 233h-88 q-63 0 -103 40t-40 103zM596 676h121l26 115h-120z" />
<glyph unicode="$" horiz-adv-x="1267" d="M61 319q0 57 39 97.5t97 40.5q27 0 63 -15q190 -76 395 -75q147 0 209 57q35 35 35 76q0 68 -141 106q-55 14 -171 30.5t-175 35.5q-289 86 -289 315q0 297 395 363v82q0 63 40 103t104 40q63 0 103 -40t40 -103v-84q109 -16 198 -50t89 -122q0 -55 -40 -95.5t-96 -40.5 q-33 0 -88 17q-70 20 -86 24q-66 12 -135 13q-238 0 -237 -107q0 -53 200 -86q139 -23 191 -35q109 -25 184 -61q201 -98 201 -305q0 -154 -117 -260q-104 -92 -264 -125v-78q0 -63 -40 -103t-103 -40t-103.5 39.5t-40.5 103.5v72q-197 18 -366 90q-90 37 -91 120z" />
<glyph unicode="%" horiz-adv-x="1705" d="M72 1157q0 156 109.5 263.5t262.5 107.5q154 0 252.5 -108.5t98.5 -262.5q0 -156 -99.5 -263.5t-251.5 -107.5q-156 0 -264 109t-108 262zM330 139q4 27 22 58l774 1228q51 82 140 68q59 -10 97 -57.5t30 -104.5q-6 -27 -25 -57l-774 -1229q-51 -82 -139 -68 q-59 10 -97.5 56.5t-27.5 105.5zM330 1157q0 -49 32.5 -81t81.5 -32q47 0 80 33t33 80t-32.5 80t-80.5 33q-49 0 -81.5 -32t-32.5 -81zM911 297q0 156 109.5 263.5t263.5 107.5t252 -108.5t98 -262.5q0 -156 -99 -263.5t-251 -107.5q-156 0 -264.5 108.5t-108.5 262.5z M1169 297q0 -49 33 -81t82 -32q47 0 80 33t33 80t-33 80t-80 33q-49 0 -82 -32t-33 -81z" />
<glyph unicode="&#x26;" horiz-adv-x="1456" d="M102 467q0 246 177 360q-109 127 -109 269q0 123 80 223q76 90 196 135q82 31 181 31q135 0 241 -62q115 -66 168 -182q33 -72 33 -154q0 -160 -98 -258q-72 -72 -215 -122l145 -170v20q0 59 42 101t101 42t101.5 -42t42.5 -101v-104q0 -100 -41 -189q20 -8 47 -8 q160 0 160 -141q0 -66 -46 -106t-114 -40q-133 0 -246 82q-139 -82 -303 -82q-244 0 -399 154q-143 139 -144 344zM389 467q0 -135 139 -191q47 -20 117 -20q58 0 103 16l-283 336q-76 -47 -76 -141zM461 1096q0 -41 37 -84l63 -76q104 29 139 45q82 40 82 106q0 39 -30 72 q-41 39 -125 39q-59 0 -107 -20q-59 -29 -59 -82z" />
<glyph unicode="'" horiz-adv-x="573" d="M143 913v445q0 63 40 103t104 40q63 0 103 -40t40 -103v-445q0 -63 -40 -103t-103 -40t-103.5 40t-40.5 103z" />
<glyph unicode="(" horiz-adv-x="665" d="M102 713q0 229 70 428q80 229 236 358q43 35 92 35q59 0 102 -45t43 -105q0 -47 -51 -104q-80 -86 -86 -96q-76 -121 -105 -293q-14 -86 -14 -178q0 -283 119 -469q37 -61 82 -97q55 -45 55 -106q0 -59 -43 -104.5t-102 -45.5q-49 0 -92 35q-154 125 -234 353 q-72 201 -72 434z" />
<glyph unicode=")" horiz-adv-x="665" d="M20 41q0 47 52 104q80 86 86 99q76 119 104 291q14 86 14 178q0 283 -118 471q-37 59 -82 94q-55 45 -56 106q0 59 43 104.5t103 45.5q49 0 92 -35q154 -125 234 -350q71 -203 71 -436q0 -229 -69 -428q-80 -229 -236 -359q-43 -35 -92 -35q-59 0 -102.5 45.5 t-43.5 104.5z" />
<glyph unicode="*" horiz-adv-x="1153" d="M102 1147q0 61 39 105t99 44q25 0 49 -8l145 -47v154q0 63 40 103t104 40q63 0 102 -40t39 -103v-154l145 47q25 8 49 8q59 0 98.5 -44t39.5 -105q0 -98 -99 -131l-145 -47l90 -123q29 -39 29 -86q0 -59 -45 -101.5t-105 -42.5q-68 0 -110 60l-91 123l-88 -123 q-43 -59 -110 -60q-59 0 -104.5 42t-45.5 102q0 47 29 86l90 123l-145 47q-98 33 -99 131z" />
<glyph unicode="+" horiz-adv-x="1073" d="M61 504q0 63 40 103t104 40h188v250q0 63 40 103t104 40q63 0 103 -39.5t40 -103.5v-250h188q63 0 103.5 -40t40.5 -103t-40 -103.5t-104 -40.5h-188v-249q0 -63 -40 -103.5t-103 -40.5t-103.5 40t-40.5 104v249h-188q-63 0 -103.5 40t-40.5 104z" />
<glyph unicode="," horiz-adv-x="645" d="M41 -272q0 23 10 53l170 495q33 98 131 99q61 0 105.5 -40t44.5 -99q0 -23 -10 -54l-170 -495q-33 -98 -132 -99q-61 0 -105 40t-44 100z" />
<glyph unicode="." horiz-adv-x="659" d="M123 174q0 86 60.5 146.5t146.5 60.5t146.5 -60.5t60.5 -146.5t-60.5 -146.5t-146.5 -60.5t-146.5 60.5t-60.5 146.5z" />
<glyph unicode="/" horiz-adv-x="894" d="M41 121q0 29 14 61l523 1219q37 88 127 88q59 0 104 -40t45 -99q0 -29 -14 -62l-523 -1218q-37 -88 -127 -88q-59 0 -104 39.5t-45 99.5z" />
<glyph unicode="0" horiz-adv-x="1398" d="M102 727q0 348 119 537q145 231 481 231t480 -233q114 -187 114 -535q0 -317 -84 -483q-143 -283 -510 -283q-338 0 -481 232q-119 188 -119 534zM389 727q0 -236 43 -330q68 -150 270 -149q158 0 224 80q59 72 73 202q11 88 11 197q0 236 -43 332q-66 150 -265 149 q-201 0 -270 -151q-43 -94 -43 -330z" />
<glyph unicode="1" horiz-adv-x="905" d="M59 1102q12 49 62 84l395 274q39 25 82 25q63 0 103 -40t40 -104v-1224q0 -63 -39.5 -103.5t-103.5 -40.5q-63 0 -103 40t-40 104v956l-172 -123q-16 -12 -27 -16q-29 -12 -57 -12q-88 0 -129 90q-20 43 -11 90z" />
<glyph unicode="2" horiz-adv-x="1200" d="M41 137q0 57 45 105l588 620q117 123 117 197q0 76 -70 117q-57 33 -139 32q-150 0 -201 -92q-41 -76 -121 -76q-57 0 -104 42t-47 100q0 35 20 71q66 119 193 183q117 59 260 59q184 0 323 -98q172 -123 172 -338q0 -168 -133 -324q-39 -47 -63 -71l-359 -377h432 q63 0 103.5 -40.5t40.5 -103.5t-40 -103t-104 -40h-766q-61 0 -104 39t-43 98z" />
<glyph unicode="3" horiz-adv-x="1284" d="M82 240q0 59 44 103t103 44q45 0 99 -43q68 -53 108 -68q68 -27 158 -26q158 0 242 69q59 51 59 117q0 63 -59 117q-82 70 -242 70q-63 0 -103 39.5t-40 103.5q0 63 39.5 103t103.5 40h33q82 0 141 33q74 39 74 115q0 78 -80 117q-63 33 -148 32q-145 0 -211 -78 q-47 -55 -108 -55q-59 0 -103.5 43t-44.5 103q0 49 35 92q152 182 432 182q193 0 336 -96q178 -123 178 -340q0 -168 -110 -283q164 -133 164 -338q0 -158 -101 -276q-94 -111 -247 -162q-109 -35 -240 -35q-301 0 -471 180q-41 43 -41 97z" />
<glyph unicode="4" horiz-adv-x="1386" d="M82 449q0 53 41 108l651 873q59 80 133 79q63 0 97 -53q31 -45 30 -110v-732h168q63 0 103.5 -40t40.5 -103t-40 -103t-104 -40h-168v-203q0 -63 -40 -103t-103 -40t-103 39.5t-40 103.5v203h-510q-156 0 -156 121zM481 614h267v365z" />
<glyph unicode="5" horiz-adv-x="1286" d="M82 244q0 59 44 103t103 44q45 0 99 -43q68 -53 108 -67q68 -27 158 -27q117 0 201 49q102 59 102 168t-100 168q-84 47 -201 47q-180 0 -354 -63v847h706q63 0 103.5 -39.5t40.5 -103.5q0 -63 -40 -103t-104 -40h-420v-213q10 0 33 2h33q223 0 391 -115 q199 -139 199 -387q0 -244 -199 -385q-166 -119 -391 -119q-301 0 -471 180q-41 43 -41 97z" />
<glyph unicode="6" horiz-adv-x="1339" d="M102 535q0 299 220 569q195 244 489 379q31 14 63 14q59 0 99.5 -45t40.5 -104q0 -51 -29 -86q-20 -25 -57 -41q-205 -92 -359 -267q70 25 150 25q231 0 381 -156q137 -147 137 -348q0 -244 -172 -389q-156 -131 -381 -131q-258 0 -420 163t-162 417zM387 483 q0 -156 164 -219q53 -20 123 -20q133 0 211 75q69 68 69 162q0 98 -71 170q-78 78 -213 78q-86 0 -156 -39q-78 -43 -108 -117q-18 -45 -19 -90z" />
<glyph unicode="7" horiz-adv-x="1087" d="M0 1327q0 63 40 103t103 40h754q150 1 150 -124q0 -37 -21 -80l-571 -1203q-39 -84 -125 -83q-59 0 -104.5 40.5t-45.5 100.5q0 31 17 65l473 998h-527q-63 0 -103 40t-40 103z" />
<glyph unicode="8" horiz-adv-x="1339" d="M82 436q0 197 174 338q-111 115 -111 283q0 217 185 340q145 96 338 96q195 0 342 -96q184 -123 184 -340q0 -168 -111 -283q174 -141 174 -338q0 -158 -100 -276q-94 -111 -248 -162q-109 -35 -239 -35q-262 0 -425 135t-163 338zM369 436q0 -66 61 -117q82 -70 240 -69 q158 0 241 69q60 51 60 117t-60 125q-84 80 -241 80q-158 0 -240 -80q-61 -59 -61 -125zM432 1057q0 -86 80 -129q66 -37 158 -37q94 0 157 37q80 45 80 129q0 76 -88 117q-68 33 -151 32q-84 0 -152 -32q-84 -41 -84 -117z" />
<glyph unicode="9" horiz-adv-x="1331" d="M102 999q0 158 80 277t224 178q102 43 241 43q258 0 420 -162.5t162 -416.5q0 -299 -217 -570q-197 -244 -492 -379q-31 -14 -63 -14q-59 0 -99.5 45t-40.5 104q0 51 29 86q20 25 57 41q193 86 373 287q-72 -25 -149 -24q-244 0 -391 159q-133 143 -134 346zM383 987 q0 -156 168 -221q53 -23 125 -23q131 0 207 72q67 66 67 158q0 96 -71 162q-82 74 -222 73q-133 0 -203.5 -64.5t-70.5 -156.5z" />
<glyph unicode=":" horiz-adv-x="659" d="M123 174q0 86 60.5 146.5t146.5 60.5t146.5 -60.5t60.5 -146.5t-60.5 -146.5t-146.5 -60.5t-146.5 60.5t-60.5 146.5zM123 817q0 86 60.5 146.5t146.5 60.5t146.5 -60.5t60.5 -146.5t-60.5 -146.5t-146.5 -60.5t-146.5 60.5t-60.5 146.5z" />
<glyph unicode=";" horiz-adv-x="681" d="M41 -272q0 23 10 53l170 495q33 98 131 99q61 0 105.5 -40t44.5 -99q0 -23 -10 -54l-170 -495q-33 -98 -132 -99q-61 0 -105 40t-44 100zM145 817q0 86 60.5 146.5t146.5 60.5t146.5 -60.5t60.5 -146.5t-60.5 -146.5t-146.5 -60.5t-146.5 60.5t-60.5 146.5z" />
<glyph unicode="&#x3c;" horiz-adv-x="729" d="M20 481l390 488q45 55 108 55q59 0 104.5 -42t45.5 -101q0 -47 -35 -90l-246 -310l246 -309q35 -43 35 -90q0 -59 -45 -101t-105 -42q-63 0 -108 55z" />
<glyph unicode="=" horiz-adv-x="1073" d="M61 279q0 63 40 103t104 40h663q63 0 103.5 -40t40.5 -103t-40 -103.5t-104 -40.5h-663q-63 0 -103.5 40t-40.5 104zM61 729q0 63 40 103t104 40h663q63 0 103.5 -40t40.5 -103t-40 -103t-104 -40h-663q-63 0 -103.5 40t-40.5 103z" />
<glyph unicode="&#x3e;" horiz-adv-x="729" d="M61 82q0 47 35 90l246 309l-246 310q-35 43 -35 90q0 59 45.5 101t104.5 42q63 0 108 -55l390 -488l-390 -487q-45 -55 -108 -55q-59 0 -104.5 42t-45.5 101z" />
<glyph unicode="?" horiz-adv-x="1105" d="M61 1294q0 82 82 123q164 82 377 82q246 0 383 -119q121 -104 121 -268q0 -137 -88 -254q-96 -125 -270 -176l-66 -16q-43 -14 -54 -26.5t-20 -35.5q-29 -88 -133 -88q-61 0 -102 39t-41 100q0 137 106 211q53 37 228 90q154 47 153 150q0 106 -217 106q-141 0 -254 -53 q-35 -16 -65 -16q-59 0 -99.5 46t-40.5 105zM195 174q0 86 60 146.5t146 60.5t146.5 -60.5t60.5 -146.5t-60.5 -146.5t-146.5 -60.5t-146 60.5t-60 146.5z" />
<glyph unicode="@" horiz-adv-x="1695" d="M102 672q0 340 117 542q104 180 338 254q123 39 295 39q317 0 498 -143q211 -170 237 -518q6 -94 6 -174q0 -199 -94 -332q-86 -121 -223 -164q-47 -14 -98 -14q96 -33 96 -135q0 -82 -82 -119q-162 -72 -340 -72q-319 0 -500 144q-217 170 -241 516q-8 94 -9 176z M369 672q0 -281 75 -402q106 -168 408 -168q115 0 235 52q12 6 37 10q-162 25 -204 147q-61 -10 -99 -10q-172 0 -254 80q-98 92 -98 311t98 314q82 78 254 77q39 0 101 -10q35 63 116 64q59 0 96 -37t37 -96v-580q117 16 148 168q8 41 8 80q0 281 -76 401 q-106 168 -399 168q-301 0 -408 -168q-76 -121 -75 -401zM735 692q0 -92 16.5 -113.5t69.5 -21.5q35 0 84 12v248q-61 10 -84 10q-63 0 -78 -39q-8 -20 -8 -96z" />
<glyph unicode="A" horiz-adv-x="1357" d="M41 102q0 29 12 60l490 1227q45 112 131 112h2q88 0 133 -112l496 -1227q12 -31 12 -60q0 -59 -45 -99t-105 -40q-90 0 -127 92l-110 281h-504l-107 -281q-35 -92 -129 -92q-59 0 -104 40t-45 99zM537 623h280l-141 381z" />
<glyph unicode="B" horiz-adv-x="1363" d="M143 0v1470h551q199 0 318 -129q108 -120 108 -281q0 -132 -67 -243q209 -118 209 -354q0 -188 -142 -322q-147 -141 -379 -141h-598zM430 287h313q115 0 181 61q51 52 51 115q0 88 -105 123q-43 14 -112 14h-328v-313zM430 887h221q131 0 172 106q11 31 11 64 q0 127 -140 127h-264v-297z" />
<glyph unicode="C" horiz-adv-x="1347" d="M102 729q0 342 97 518q135 246 475 246q209 0 432 -94q86 -37 86 -127q0 -59 -40 -104.5t-99 -45.5q-27 0 -68 17q-33 12 -63 26q-115 41 -248 41q-166 0 -225.5 -100t-59.5 -377q0 -256 75 -366.5t251 -110.5q147 0 272 47q100 37 129 37q61 0 100 -44.5t39 -105.5 q0 -72 -61 -110q-27 -16 -123 -49q-178 -61 -356 -62q-334 0 -490 238q-123 188 -123 526z" />
<glyph unicode="D" horiz-adv-x="1433" d="M143 0v1470h504q299 0 477 -157q207 -186 207 -557q0 -360 -198 -563q-188 -193 -486 -193h-504zM430 287h217q276 0 367 252q30 88 30 217q0 242 -112 344q-94 84 -285 84h-217v-897z" />
<glyph unicode="E" d="M143 0v1470h863q63 0 103 -39.5t40 -103.5q0 -63 -40 -103t-103 -40h-576v-277h404q63 0 103 -40t40 -103t-40 -103t-103 -40h-404v-334h592q63 0 103 -40.5t40 -103.5t-40 -103t-103 -40h-879z" />
<glyph unicode="F" horiz-adv-x="1230" d="M143 106v1364h863q63 0 103 -40t40 -103t-40 -103t-103 -40h-576v-277h404q63 0 103 -40t40 -103t-40 -103t-103 -40h-404v-515q0 -63 -40 -103t-103 -40t-103.5 40t-40.5 103z" />
<glyph unicode="G" horiz-adv-x="1396" d="M102 731q0 342 97 518q135 246 475 246q209 0 432 -94q86 -37 86 -127q0 -59 -40 -104.5t-99 -45.5q-27 0 -68 17q-33 12 -63 26q-115 41 -248 41q-166 0 -225.5 -100t-59.5 -377q0 -256 75 -366.5t251 -110.5q145 0 252 25v253h-162q-63 0 -103 40t-40 104 q0 63 39.5 103t103.5 40h448v-747q-295 -106 -538 -107q-336 0 -490 240q-123 188 -123 526z" />
<glyph unicode="H" horiz-adv-x="1435" d="M143 106v1258q0 63 40 103t104 40q63 0 103 -40t40 -103v-457h576v457q0 63 39.5 103t103.5 40q63 0 103 -40t40 -103v-1258q0 -63 -40 -103t-103 -40t-103 40t-40 103v515h-576v-515q0 -63 -40 -103t-103 -40t-103.5 40t-40.5 103z" />
<glyph unicode="I" horiz-adv-x="573" d="M143 106v1258q0 63 40 103t104 40q63 0 103 -40t40 -103v-1258q0 -63 -40 -103t-103 -40t-103.5 40t-40.5 103z" />
<glyph unicode="J" horiz-adv-x="856" d="M-20 125q0 63 39.5 103t103.5 40q197 0 254 47q49 39 49 172v877q0 63 40 103t103 40t103.5 -40t40.5 -103v-877q0 -283 -164 -403q-141 -102 -426 -102q-63 0 -103 39.5t-40 103.5z" />
<glyph unicode="K" horiz-adv-x="1353" d="M143 106v1258q0 63 40 103t104 40q63 0 103 -40t40 -103v-457h76l469 549q43 51 106 51q59 0 103.5 -43t44.5 -102q0 -51 -35 -92l-358 -418q121 -63 188 -184q18 -33 31 -60l202 -442q15 -31 15 -62q0 -61 -43 -101t-103 -40q-88 0 -127 82l-204 442q-61 133 -217 134 h-148v-515q0 -63 -40 -103t-103 -40t-103.5 40t-40.5 103z" />
<glyph unicode="L" horiz-adv-x="1267" d="M143 0v1364q0 63 40 103t104 40q63 0 103 -40t40 -103v-1077h612q63 0 103.5 -40.5t40.5 -103.5t-40 -103t-104 -40h-899z" />
<glyph unicode="M" horiz-adv-x="1673" d="M143 106v1250q0 63 40 107t102 44q94 0 133 -90l418 -966l419 966q39 90 134 90q61 0 101 -44t40 -107v-1250q0 -63 -40 -103t-104 -40q-63 0 -103 40t-40 103v644l-276 -682q-37 -92 -131 -93q-92 0 -129 93l-277 682v-644q0 -63 -40 -103t-103 -40t-103.5 40t-40.5 103 z" />
<glyph unicode="N" horiz-adv-x="1435" d="M143 106v1235q0 68 29 113q35 53 98 53q76 0 133 -82l603 -860v799q0 63 39.5 103t103.5 40q63 0 103 -40t40 -103v-1241q0 -66 -30 -111q-33 -53 -97 -53q-76 0 -133 82l-602 860v-795q0 -63 -40 -103t-103 -40t-103.5 40t-40.5 103z" />
<glyph unicode="O" horiz-adv-x="1466" d="M102 723q0 305 95 491q86 168 288 242q104 37 252 37q270 0 424 -137q203 -182 203 -633q0 -307 -92 -487q-86 -172 -283 -246q-104 -37 -252 -37q-270 0 -428 137q-207 178 -207 633zM389 723q0 -250 60 -350q78 -133 288 -133q207 0 283 131q57 102 57 352t-57 352 q-76 131 -283 131q-211 0 -288 -131q-59 -102 -60 -352z" />
<glyph unicode="P" horiz-adv-x="1259" d="M143 106v1364h609q197 0 319 -129q107 -116 107 -284q0 -135 -72 -248t-195 -168q-88 -41 -200 -41h-281v-494q0 -63 -40 -103t-103 -40t-103.5 40t-40.5 103zM430 887h281q80 0 130 46t50 124q0 127 -139 127h-322v-297z" />
<glyph unicode="Q" horiz-adv-x="1466" d="M102 723q0 305 95 491q86 168 288 242q104 37 252 37q270 0 424 -137q203 -182 203 -633q0 -295 -88 -483q-39 -80 -107 -142l136 -168q35 -43 34 -90q0 -59 -44 -102t-103 -43q-63 0 -109 55l-180 217q-86 -14 -166 -14q-270 0 -428 137q-207 178 -207 633zM389 723 q0 -250 60 -350q78 -133 288 -133q207 0 283 131q57 102 57 352t-57 352q-76 131 -283 131q-211 0 -288 -131q-59 -102 -60 -352z" />
<glyph unicode="R" horiz-adv-x="1376" d="M143 106v1364h609q199 0 319 -135q106 -123 107 -291q0 -227 -170 -364q27 -35 63 -107l205 -401q18 -37 18 -66q0 -61 -43 -102t-104 -41q-86 0 -125 78l-205 401q-43 84 -86 111t-133 27h-168v-474q0 -63 -40 -103t-103 -40t-103.5 40t-40.5 103zM430 866h281 q80 0 130 49t50 129q0 137 -139 138h-322v-316z" />
<glyph unicode="S" horiz-adv-x="1290" d="M72 193q0 59 41 104t100 45q37 0 72 -18q145 -78 342 -78q284 0 284 179q0 107 -120 161q-51 20 -134 39q-68 16 -133 30q-135 35 -207 76q-100 57 -147 158q-35 70 -35 176q0 223 178 340q139 90 338 90q225 0 391 -104q70 -43 70 -117q0 -59 -43 -104.5t-100 -45.5 q-33 0 -90 27q-72 35 -95 41q-63 16 -133 16q-229 0 -229 -143q0 -94 201 -141l188 -45q387 -95 387 -453q0 -248 -194 -371q-156 -96 -377 -96q-270 0 -477 113q-78 43 -78 121z" />
<glyph unicode="T" horiz-adv-x="1361" d="M61 1327q0 63 40 103t104 40h952q63 0 103 -40t40 -103t-39.5 -103t-103.5 -40h-332v-1078q0 -63 -40 -103t-103 -40t-103 40t-40 103v1078h-334q-63 0 -103.5 40t-40.5 103z" />
<glyph unicode="U" horiz-adv-x="1417" d="M143 420v944q0 63 40 103t104 40q63 0 103 -40t40 -103v-938q0 -109 90 -145q57 -27 189 -27q129 0 188 25q90 39 90 147v938q0 63 40 103t103 40t103.5 -40t40.5 -103v-944q0 -207 -127 -322q-143 -131 -438 -131t-439 131q-127 115 -127 322z" />
<glyph unicode="V" horiz-adv-x="1343" d="M41 1368q0 59 44 99t105 40q94 0 129 -90l355 -903l350 901q35 92 129 92q61 0 105.5 -40t44.5 -99q0 -27 -13 -57l-483 -1235q-45 -115 -133 -115t-133 113l-488 1237q-12 31 -12 57z" />
<glyph unicode="W" horiz-adv-x="1832" d="M41 1368q0 61 44 100t105 39q102 0 134 -102l229 -758l225 758q37 127 137 127q98 0 138 -127l229 -758l227 758q31 102 133 102q61 0 105.5 -39t44.5 -100q0 -16 -8 -45l-363 -1235q-37 -127 -137 -127t-137 127l-229 776l-228 -776q-37 -127 -137 -127t-137 127 l-367 1233q-8 27 -8 47z" />
<glyph unicode="X" horiz-adv-x="1277" d="M61 106q0 41 29 84l375 555l-367 535q-29 41 -28 84q0 59 45 101t104 42q74 0 115 -63l305 -467l307 467q41 63 113 63q59 0 104 -42t45 -101q0 -45 -26 -84l-369 -535l377 -555q27 -39 27 -84q0 -59 -45.5 -101t-104.5 -42q-72 0 -113 64l-315 487l-313 -487 q-41 -63 -115 -64q-59 0 -104.5 42t-45.5 101z" />
<glyph unicode="Y" horiz-adv-x="1261" d="M41 1366q0 59 45 100t104 41q74 0 117 -67l326 -504l321 504q42 67 115 67h2q59 0 104.5 -42t45.5 -99q0 -41 -25 -80l-420 -657v-523q0 -63 -40 -103t-103 -40t-103.5 40t-40.5 103v523l-423 657q-25 39 -25 80z" />
<glyph unicode="Z" horiz-adv-x="1273" d="M61 121q0 51 39 106l678 957h-508q-63 0 -103 40t-40 103t40 103t103 40h787h3q152 0 152 -120q0 -51 -38 -107l-680 -956h565q63 0 103 -40t40 -104q0 -63 -40 -103t-103 -40h-842q-156 0 -156 121z" />
<glyph unicode="[" horiz-adv-x="800" d="M164 -225v1695h432q63 0 103 -39.5t40 -103.5q0 -63 -40 -103t-103 -40h-145v-1123h145q63 0 103 -40t40 -103t-40 -103t-103 -40h-432z" />
<glyph unicode="\" horiz-adv-x="894" d="M41 1350q0 59 45 99t104 40q90 0 127 -88l523 -1219q14 -32 14 -61q0 -59 -45 -99t-104 -40q-90 0 -127 88l-523 1218q-14 33 -14 62z" />
<glyph unicode="]" horiz-adv-x="800" d="M61 -82q0 63 40 103t104 40h145v1123h-145q-63 0 -103.5 40t-40.5 103t40 103t104 40h432v-1695h-432q-63 0 -103.5 40t-40.5 103z" />
<glyph unicode="^" horiz-adv-x="1024" />
<glyph unicode="_" horiz-adv-x="780" d="M20 -299q0 63 40 103t104 40h452q63 0 103.5 -40t40.5 -103t-40 -103t-104 -40h-452q-63 0 -103.5 40t-40.5 103z" />
<glyph unicode="`" horiz-adv-x="1196" d="M229 1450q0 51 36 87t87 36q20 0 43 -8l492 -185q80 -30 80 -114q0 -51 -36 -87t-87 -36q-29 0 -45 6l-490 186q-80 31 -80 115z" />
<glyph unicode="a" horiz-adv-x="1179" d="M92 289q0 133 94 231q102 106 293 121l260 18l-2 82q0 35 -88 35q-86 0 -231 -33q-31 -8 -41 -12q-27 -10 -55 -10q-57 0 -98.5 39t-41.5 96q0 88 97 123q166 61 354 61q250 0 352 -139q37 -53 39 -133l12 -686q0 -63 -40 -103t-103 -40q-53 0 -92 30.5t-49 81.5l-88 -39 q-102 -45 -213 -45q-156 0 -254 84q-104 88 -105 238zM375 317q0 -96 110 -96q45 0 103 21l157 57l-2 119l-299 -21q-70 -4 -69 -80z" />
<glyph unicode="b" horiz-adv-x="1228" d="M143 84v1305q0 63 40 103t104 40q63 0 103 -40t40 -103v-379q109 30 209 30h6q223 0 350 -137q131 -145 131 -401q0 -231 -114 -377q-129 -162 -355 -162q-119 0 -237 60q-33 -84 -133 -84q-63 0 -103.5 40.5t-40.5 104.5zM430 281q119 -53 205 -54q207 1 207 275 t-221 274q-86 0 -191 -22v-473z" />
<glyph unicode="c" horiz-adv-x="1173" d="M102 492q0 258 117 399q120 149 347 149h3q203 0 346 -82q76 -43 76 -116q0 -57 -39 -96t-96 -39q-31 0 -78 20q-18 8 -55 23q-67 24 -148 24h-6q-133 0 -166 -141q-14 -55 -14 -141q0 -147 62 -222q49 -63 147 -63q131 0 270 88q45 29 86 29q55 0 96.5 -41.5t41.5 -96.5 q0 -68 -68 -110q-209 -135 -426 -135q-242 0 -375 161q-121 147 -121 390z" />
<glyph unicode="d" horiz-adv-x="1228" d="M102 502q0 260 138 403q127 135 346 135q102 0 213 -30v381q0 63 40 103t103 40t103 -40t40 -103v-1307q0 -63 -39.5 -104t-103.5 -41q-100 0 -133 84q-119 -59 -238 -60q-225 0 -352 162q-117 145 -117 377zM389 502q0 -276 207 -277q88 0 203 51v478q-108 22 -179 22 h-6q-111 0 -161 -55q-63 -68 -64 -219z" />
<glyph unicode="e" horiz-adv-x="1196" d="M102 479q0 418 285 533q72 28 171 28h7q211 0 330 -96q131 -106 131 -311q0 -137 -10 -246h-629q33 -190 234 -190q150 0 260 71q41 27 84 27q57 0 98 -40t41 -97q0 -70 -70 -113q-182 -115 -413 -115q-244 0 -383 156q-135 150 -136 393zM391 623h373q0 2 2 8v8 q0 86 -59 121q-45 24 -131 24h-7q-154 0 -178 -161z" />
<glyph unicode="f" horiz-adv-x="915" d="M10 848q0 61 41 97t103 36h86v258q0 166 120 248q88 59 218 59q123 0 292 -55q97 -31 97 -123q0 -57 -39 -97t-97 -40q-29 0 -77 14q-63 20 -76 25q-53 10 -100 10q-51 0 -52 -41v-258h205q61 0 102 -36t41 -97t-40.5 -97t-102.5 -36h-205v-609q0 -63 -40 -103t-103 -40 t-103 40t-40 103v609h-86q-61 0 -102.5 35.5t-41.5 97.5z" />
<glyph unicode="g" horiz-adv-x="1232" d="M102 500q0 233 136 372q127 131 327 132q123 0 246 -52q31 90 135 90q63 0 103.5 -38.5t40.5 -102.5v-899q0 -221 -154 -332q-133 -92 -350 -92q-205 0 -373 72q-90 39 -90 121q0 57 40 97t97 40q23 0 88 -21q86 -27 92 -28q74 -18 160 -19q203 0 203 142v67 q-127 -51 -246 -51q-215 0 -340 149q-115 137 -115 353zM389 500q0 -246 203 -246q92 0 211 61v371q-41 27 -115 43q-37 8 -80 8q-117 0 -162 -41q-57 -49 -57 -196z" />
<glyph unicode="h" d="M143 106v1283q0 63 40 103t104 40q63 0 103 -40t40 -103v-453l82 37q104 47 219 47q162 0 266 -88q106 -94 107 -250v-571q0 -63 -40 -103.5t-103 -40.5t-103.5 40t-40.5 104v591q0 57 -84 58q-59 0 -119 -23l-184 -69v-562q0 -63 -40 -103t-103 -40t-103.5 40t-40.5 103 z" />
<glyph unicode="i" horiz-adv-x="573" d="M109 1354q0 74 52 126t126 52t126 -52t52 -126t-52.5 -126t-125.5 -52q-74 0 -126 52t-52 126zM143 106v771q0 63 40 103t104 40q63 0 103 -40t40 -103v-771q0 -63 -40 -103t-103 -40t-103.5 40t-40.5 103z" />
<glyph unicode="j" horiz-adv-x="587" d="M-184 -268q0 63 40 103t103 40q117 0 158 36t41 167v799q0 63 40 103t103 40t103 -40t40 -103v-799q0 -270 -147 -391q-121 -98 -338 -99q-63 0 -103 40t-40 104zM123 1354q0 74 52 126t126 52t126 -52t52 -126t-52 -126t-126 -52t-126 52t-52 126z" />
<glyph unicode="k" horiz-adv-x="1196" d="M143 106v1283q0 63 40 103t104 40q63 0 103 -40t40 -103v-713l424 319q41 31 86 31q59 0 102 -45t43 -104q0 -66 -59 -111l-225 -170q53 -41 92 -102l197 -310q24 -38 24 -75q0 -61 -43 -103.5t-104 -42.5q-76 0 -117 66l-197 309q-35 53 -84 53q-39 0 -92 -39l-47 -35 v-211q0 -63 -40 -103t-103 -40t-103.5 40t-40.5 103z" />
<glyph unicode="l" horiz-adv-x="573" d="M143 106v1283q0 63 40 103t104 40q63 0 103 -40t40 -103v-1283q0 -63 -40 -103t-103 -40t-103.5 40t-40.5 103z" />
<glyph unicode="m" horiz-adv-x="1740" d="M143 106v793q0 63 40 103t104 40q109 0 137 -98l80 37q94 43 186 43q156 0 250 -111l145 68q92 43 187 43q152 0 238.5 -96.5t86.5 -245.5v-576q0 -63 -39.5 -103t-103.5 -40q-63 0 -103 40t-40 103v596q0 55 -47 56q-27 0 -74 -19l-174 -67v-566q0 -63 -40 -103 t-104 -40q-63 0 -103 40t-40 103v596q0 55 -47 56q-27 0 -74 -19l-178 -69v-564q0 -63 -40 -103t-103 -40t-103.5 40t-40.5 103z" />
<glyph unicode="n" d="M143 106v793q0 63 40 103t104 40q119 0 139 -108l86 39q104 47 219 47q162 0 266 -88q106 -94 107 -250v-576q0 -63 -40 -103t-103 -40t-103.5 40t-40.5 103v596q0 57 -84 58q-59 0 -119 -23l-184 -69v-562q0 -63 -40 -103t-103 -40t-103.5 40t-40.5 103z" />
<glyph unicode="o" d="M102 500q0 276 148 415q133 125 373 125q242 0 374 -122q148 -137 148 -418q0 -260 -129 -410q-135 -158 -391 -158t-394 158q-129 147 -129 410zM389 500q0 -301 236 -301q233 0 233 301q0 158 -55 219q-53 55 -180 55q-135 0 -189 -72q-45 -61 -45 -202z" />
<glyph unicode="p" horiz-adv-x="1232" d="M143 -264v1163q0 63 40 103t104 40q98 0 131 -79q119 57 235 57q217 0 344 -127q133 -137 133 -389q0 -258 -136 -409.5t-365 -151.5q-109 0 -199 41v-248q0 -63 -40 -103.5t-103 -40.5t-103.5 40t-40.5 104zM430 270q82 -61 199 -61q154 0 198 158q17 55 17 137 q0 141 -56 203q-45 47 -135 47q-106 0 -223 -70v-414z" />
<glyph unicode="q" horiz-adv-x="1232" d="M102 500q0 233 136 372q127 131 327 132q123 0 246 -52q31 90 135 90q63 0 103.5 -38.5t40.5 -102.5v-1171q0 -63 -40 -103.5t-104 -40.5q-63 0 -103 40t-40 104v284q-123 -59 -228 -59q-229 0 -356 166q-117 150 -117 379zM393 494q0 -270 182 -271q87 1 228 60v401 q-84 53 -195 53q-115 0 -157 -43q-57 -53 -58 -200z" />
<glyph unicode="r" horiz-adv-x="1005" d="M143 104v795q0 63 40 102t104 39q102 0 135 -92q156 72 246 72q76 0 184 -37q92 -31 92 -123q0 -55 -37 -96t-92 -41q-4 0 -106 27q-29 6 -58 6q-47 0 -96 -21l-125 -51v-580q0 -63 -40 -102t-103 -39t-103.5 39t-40.5 102z" />
<glyph unicode="s" horiz-adv-x="1128" d="M92 147q0 57 40 96.5t97 39.5q43 0 82 -23q104 -61 260 -61q180 0 181 84q0 45 -99 69q-8 2 -168 35q-100 20 -161 47q-174 72 -174 266q0 180 143 271q107 67 254 67h4q174 0 330 -61q90 -35 90 -121q0 -57 -39 -95t-96 -38q-25 0 -80 16q-72 23 -84 25q-61 12 -121 12 q-115 0 -115 -61q0 -45 94 -66q86 -16 172 -35q102 -23 166 -51q168 -82 168 -287q0 -137 -92 -221q-131 -123 -373 -123q-236 0 -407 103q-72 43 -72 112z" />
<glyph unicode="t" horiz-adv-x="1054" d="M41 846q0 61 41 97t102 36h90v315q0 63 40 103.5t104 40.5q63 0 103 -40t40 -104v-315h232q61 0 102 -36t41 -97q0 -59 -41 -96t-102 -37h-232v-455q0 -37 60 -37q57 0 180 43q16 6 35 6q55 0 96 -40t41 -95q0 -74 -78 -117q-113 -61 -299 -61q-145 0 -233.5 83 t-88.5 226v447h-90q-61 0 -102 36.5t-41 96.5z" />
<glyph unicode="u" d="M143 315v562q0 63 40 103t104 40q63 0 103 -40t40 -103v-572q0 -67 84 -67h2q55 0 127 26l174 66v547q0 63 40 103t104 40q63 0 103 -40t40 -103v-779q0 -63 -40 -103t-103 -40q-119 0 -140 108l-86 -38q-104 -47 -219 -48q-164 0 -268.5 90.5t-104.5 247.5z" />
<glyph unicode="v" horiz-adv-x="1138" d="M41 879q0 59 46 100t108 41q82 0 120 -82l254 -545l254 545q39 82 121 82q61 0 107.5 -41t46.5 -100q0 -33 -17 -66l-385 -772q-41 -84 -129 -84t-129 84l-381 772q-16 33 -16 66z" />
<glyph unicode="w" horiz-adv-x="1589" d="M41 881q0 59 45 99t107 40q96 0 129 -96l159 -484l178 465q43 115 134 115q88 0 133 -115l180 -465l162 484q33 96 129 96q61 0 106 -40t45 -99q0 -29 -10 -56l-293 -749q-47 -119 -135 -119t-131 115l-186 508l-185 -508q-41 -115 -131 -115q-92 0 -137 119l-289 749 q-10 27 -10 56z" />
<glyph unicode="x" horiz-adv-x="1136" d="M61 109q0 53 41 96l283 295l-264 278q-39 41 -39 96q0 59 44 102.5t103 43.5q63 0 105 -49l235 -277l236 277q41 49 102 49q59 0 104.5 -43t45.5 -103q0 -53 -41 -96l-262 -278l282 -295q39 -41 39 -96q0 -59 -44 -102.5t-103 -43.5q-61 0 -105 49l-254 295l-256 -295 q-43 -49 -104 -49q-59 0 -103.5 43t-44.5 103z" />
<glyph unicode="y" horiz-adv-x="1181" d="M18.5 -147q38.5 36 94.5 36q33 0 65 -14q47 -22 94 -22h4q72 0 103 69l45 103l-365 790q-16 35 -16 64q0 59 46 100t106 41q88 0 124 -86l252 -588l273 590q39 84 127 84q59 0 104 -40t45 -99q0 -31 -16 -66l-463 -1005q-76 -166 -258 -207q-55 -12 -107 -13 q-150 0 -229 56q-67 44 -67 114q0 57 38.5 93z" />
<glyph unicode="z" horiz-adv-x="1130" d="M82 121q0 63 55 121l451 473h-316q-61 0 -102 35.5t-41 97.5q0 59 41 96t102 37h609q63 0 111 -30.5t48 -90.5q0 -66 -55 -121l-471 -473h391q61 0 102.5 -36t41.5 -97q0 -59 -41 -96t-103 -37h-663q-63 0 -109 29q-51 33 -51 92z" />
<glyph unicode="{" horiz-adv-x="921" d="M61 635q0 66 42 104.5t108 38.5q16 0 34.5 31t18.5 49v176q0 369 318 449q35 8 61 12l57 8q4 0 13 2h10q61 0 99 -43t38 -104q0 -123 -123 -139q-55 -8 -71 -11q-47 -10 -68 -24q-31 -20 -41 -80q-6 -29 -6 -70v-176q0 -115 -78 -223q78 -109 78 -221v-178 q0 -106 43 -144q31 -27 143 -41q123 -16 123 -139q0 -61 -38 -104.5t-99 -43.5h-12q-6 2 -11 3q-182 27 -266 86q-170 119 -170 383v178q0 18 -18.5 48t-34.5 30q-66 0 -108 38.5t-42 104.5z" />
<glyph unicode="|" horiz-adv-x="573" d="M143 -94v1483q0 63 40 103t104 40q63 0 103 -40t40 -103v-1483q0 -63 -40 -103.5t-103 -40.5t-103.5 40t-40.5 104z" />
<glyph unicode="}" horiz-adv-x="921" d="M61 -88q0 123 123 139q55 8 72 10q47 10 68 25q31 20 43 82q4 27 4 68v176q0 115 78 223q-78 109 -78 221v178q0 106 -41 144q-33 27 -146 41q-123 14 -123 139q0 61 38 104t100 43h12q6 -2 10 -2q182 -27 266 -86q170 -119 170 -383v-178q0 -18 18.5 -48t35.5 -30 q66 0 107.5 -38.5t41.5 -104.5t-42 -104.5t-107 -38.5q-16 0 -35 -31t-19 -49v-176q0 -369 -317 -449q-35 -8 -59 -12l-60 -8q-4 0 -12 -3h-10q-61 0 -99.5 43t-38.5 105z" />
<glyph unicode="~" horiz-adv-x="1148" d="M82 885q0 113 79 188.5t191 75.5q82 0 215 -51q147 -55 213 -64q16 121 144 121q63 0 103 -40t40 -103q0 -115 -78 -189.5t-192 -74.5q-76 0 -172 30q-84 31 -166 60q-33 14 -90 30q-12 -127 -144 -127q-63 0 -103 40t-40 104z" />
<glyph unicode="&#xa1;" horiz-adv-x="659" d="M123 1327q0 86 60.5 146.5t146.5 60.5t146.5 -60.5t60.5 -146.5t-60.5 -146.5t-146.5 -60.5t-146.5 60.5t-60.5 146.5zM182 109v704q0 63 40 103t104 40q63 0 103 -39.5t40 -103.5v-704q0 -63 -40 -103.5t-103 -40.5t-103.5 40t-40.5 104z" />
<glyph unicode="&#xa2;" horiz-adv-x="1286" d="M123 608q0 197 88 322q96 135 285 164v75q0 63 39.5 103.5t103.5 40.5q63 0 103 -40t40 -104v-90q76 -16 158 -41q102 -31 102 -133q0 -61 -38.5 -105t-100.5 -44q-20 0 -47 8q-162 49 -266 49q-100 0 -135 -39q-45 -49 -45 -166q0 -203 208 -202q143 0 320 81 q31 14 66 15q59 0 99 -45.5t40 -104.5q0 -90 -84 -127q-137 -61 -277 -90v-94q0 -63 -40 -103t-103 -40t-103 39.5t-40 103.5v88q-182 37 -281 168q-92 125 -92 311z" />
<glyph unicode="&#xa3;" horiz-adv-x="1355" d="M61 143q0 63 40 103.5t104 40.5h168l-21 334h-125q-63 0 -103 39.5t-40 103.5q0 63 40 103t103 40h107l-8 152q-2 39 -2 31q0 203 163 315q131 92 308 92q211 0 354 -123q104 -90 104 -176q0 -59 -43 -100t-102 -41q-49 0 -86 26q-16 12 -41 50q-20 29 -63 53 q-49 25 -123 24q-184 0 -185 -123v-10l11 -170h167q63 0 103.5 -40t40.5 -103t-40 -103t-104 -40h-149l20 -334h392q63 0 103 -40t40 -104q0 -63 -40 -103t-103 -40h-846q-63 0 -103.5 40t-40.5 103z" />
<glyph unicode="&#xa5;" horiz-adv-x="1253" d="M102 1366q0 59 46.5 100t105.5 41q80 0 121 -77l221 -412h63l220 412q41 78 120 77q59 0 105.5 -41t46.5 -100q0 -31 -21 -70l-151 -288q82 -33 82 -123q0 -59 -41 -96t-102 -37h-578q-61 0 -102 36.5t-41 96.5q0 90 79 123l-153 286q-20 39 -21 72zM197 489 q0 59 41 96.5t102 37.5h578q61 0 102 -37.5t41 -96.5q0 -61 -41 -97t-102 -36h-146v-250q0 -63 -40 -103t-103 -40t-103.5 40t-40.5 103v250h-145q-61 0 -102 36t-41 97z" />
<glyph unicode="&#xa6;" horiz-adv-x="1024" />
<glyph unicode="&#xa7;" horiz-adv-x="1142" d="M61 6q0 55 41 95t97 40q31 0 96 -30q80 -39 108 -48q74 -20 154 -20q113 0 164 47q33 29 33 74q0 68 -166 110l-154 41q-322 82 -321 351q0 152 88 239q-88 88 -88 230q0 166 137 270q125 96 295 96t338 -74q86 -39 86 -120q0 -55 -40 -95.5t-95 -40.5q-35 0 -89 21 q-70 27 -86 31q-59 12 -114 12q-84 0 -119 -35q-27 -27 -27 -65q0 -49 166 -93q121 -31 160 -43q88 -29 149 -65q166 -102 166 -301q0 -133 -86 -232q86 -94 86 -237q0 -131 -84 -227q-76 -90 -204 -132q-90 -29 -195 -28q-254 0 -430 119q-66 45 -66 110zM399 666 q0 -39 95 -72q72 -27 172 -47q88 27 88 86q0 61 -90 86q-66 18 -140 18q-111 0 -121 -45q-4 -14 -4 -26z" />
<glyph unicode="&#xa8;" horiz-adv-x="1167" d="M264 1438q0 55 40 95t95 40t95.5 -40t40.5 -95t-40 -95t-96 -40q-55 0 -95 39.5t-40 95.5zM674 1438q0 55 40 95t95 40t95 -40t40 -95t-40 -95t-95 -40t-95 39.5t-40 95.5z" />
<glyph unicode="&#xa9;" horiz-adv-x="1894" d="M82 735q0 360 254 613.5t610 253.5q362 0 614 -254.5t252 -612.5q0 -360 -253.5 -612t-612.5 -252q-360 0 -612 254t-252 610zM348 735q0 -248 176 -423t422 -175q248 0 424 177t176 421q0 250 -177 425t-423 175q-250 0 -424 -177t-174 -423zM559 725q0 145 29 229 q37 117 139 176q74 41 201 41q78 0 168 -22q115 -29 143 -78q16 -29 16 -61q0 -51 -33.5 -90t-84.5 -39q-25 0 -56 12q-4 0 -12 3t-33 13q-59 16 -108 17q-80 0 -99 -31q-25 -37 -24 -170q0 -125 29.5 -162t119.5 -37q84 0 172 35q20 8 50 8q51 0 86.5 -41t35.5 -92 q0 -76 -79 -104q-139 -51 -265 -51q-223 0 -319 141q-76 113 -76 303z" />
<glyph unicode="&#xaa;" horiz-adv-x="1024" />
<glyph unicode="&#xab;" horiz-adv-x="1566" d="M61 481l488 432q43 39 94 39q59 0 102 -44t43 -103q0 -61 -49 -105l-245 -219l245 -217q49 -43 49 -104q0 -59 -43 -104.5t-102 -45.5q-51 0 -94 39zM737 481l488 432q43 39 94 39q59 0 102 -44t43 -103q0 -61 -49 -105l-246 -219l246 -217q49 -43 49 -104 q0 -59 -43 -104.5t-102 -45.5q-51 0 -94 39z" />
<glyph unicode="&#xac;" horiz-adv-x="1024" />
<glyph unicode="&#xad;" horiz-adv-x="911" d="M102 637q0 63 40 103t104 40h420q63 0 103 -40t40 -103t-40 -103t-103 -40h-420q-63 0 -103.5 39.5t-40.5 103.5z" />
<glyph unicode="&#xae;" horiz-adv-x="1894" d="M82 735q0 360 254 613.5t610 253.5q362 0 614 -254.5t252 -612.5q0 -360 -253.5 -612t-612.5 -252q-360 0 -612 254t-252 610zM348 735q0 -248 176 -423t422 -175q248 0 424 177t176 421q0 250 -177 425t-423 175q-250 0 -424 -177t-174 -423zM621 424v745h395 q193 0 256 -165q18 -49 18 -101q0 -115 -76 -194q25 -37 58 -136l39 -116l4 -23q0 -53 -35 -93t-88 -40q-86 0 -115 82l-65 184q-18 49 -92 49h-54v-192q0 -53 -34.5 -88t-88.5 -35q-53 0 -87.5 35t-34.5 88zM866 852h135q48 0 48 49q0 33 -33 33h-150v-82z" />
<glyph unicode="&#xaf;" horiz-adv-x="1175" d="M219 1419q0 53 35 88t88 35h492q53 0 87.5 -35t34.5 -88t-34.5 -88t-87.5 -35h-492q-53 0 -88 35t-35 88z" />
<glyph unicode="&#xb0;" horiz-adv-x="817" d="M61 1145q0 143 103.5 244.5t245.5 101.5q141 0 243.5 -102.5t102.5 -243.5q0 -143 -102.5 -245.5t-243.5 -102.5q-143 0 -246 102t-103 246zM266 1145q0 -59 42 -101.5t102 -42.5q59 0 100 42.5t41 101.5t-41 100t-100 41t-101.5 -41t-42.5 -100z" />
<glyph unicode="&#xb1;" horiz-adv-x="1024" />
<glyph unicode="&#xb2;" horiz-adv-x="1024" />
<glyph unicode="&#xb3;" horiz-adv-x="1024" />
<glyph unicode="&#xb4;" horiz-adv-x="1196" d="M229 1266q0 84 80 114l492 185q23 8 43 8q88 0 117 -82q6 -23 6 -41q0 -84 -80 -115l-490 -186q-16 -6 -45 -6q-88 0 -114 84q-8 20 -9 39z" />
<glyph unicode="&#xb6;" horiz-adv-x="1411" d="M61 1006q0 207 142 337q135 127 340 127h725v-1550q0 -63 -40 -103t-104 -40q-63 0 -103 40t-40 103v1264h-147v-1264q0 -63 -40 -103t-104 -40q-63 0 -102 40t-39 103v621h-6q-221 0 -359 145q-123 131 -123 320zM348 1006q0 -84 54.5 -131.5t140.5 -47.5h6v357h-6 q-86 0 -140.5 -47t-54.5 -131z" />
<glyph unicode="&#xb7;" horiz-adv-x="659" d="M123 625q0 86 60.5 146t146.5 60t146.5 -60t60.5 -146t-60.5 -146.5t-146.5 -60.5t-146.5 60.5t-60.5 146.5z" />
<glyph unicode="&#xb8;" horiz-adv-x="1107" d="M264 -385q0 53 36 88t89 35t76 -29q37 -45 106 -45q37 0 37 25q0 49 -112 86q-96 33 -162 32l106 213q33 68 107 68q47 0 84 -24.5t37 -69.5q0 -12 -9 -37l-14 -29q88 -25 143.5 -91t55.5 -154q0 -113 -92 -183q-82 -61 -197 -61q-190 0 -264 100q-27 37 -27 76z" />
<glyph unicode="&#xb9;" horiz-adv-x="1024" />
<glyph unicode="&#xba;" horiz-adv-x="1024" />
<glyph unicode="&#xbb;" horiz-adv-x="1566" d="M102 158q0 61 50 104l245 219l-245 217q-49 43 -50 105q0 59 43 104t103 45q51 0 94 -39l487 -432l-487 -432q-43 -39 -94 -39q-59 0 -102.5 44t-43.5 104zM778 158q0 61 49 104l246 219l-246 217q-49 43 -49 105q0 59 43 104t103 45q51 0 94 -39l487 -432l-487 -432 q-43 -39 -94 -39q-59 0 -102.5 44t-43.5 104z" />
<glyph unicode="&#xbc;" horiz-adv-x="1024" />
<glyph unicode="&#xbd;" horiz-adv-x="1024" />
<glyph unicode="&#xbe;" horiz-adv-x="1024" />
<glyph unicode="&#xbf;" horiz-adv-x="1093" d="M61 365q0 137 91 253q94 125 268 177q33 8 65 16q43 14 58 31q8 8 16 30q29 88 133 89q61 0 102.5 -39t41.5 -101q0 -137 -107 -211q-45 -31 -182 -73q-121 -39 -160 -81t-39 -85q0 -106 217 -107q141 0 254 53q35 16 66 17q59 0 99 -46.5t40 -105.5q0 -82 -82 -123 q-164 -82 -377 -82q-250 0 -383 119q-121 106 -121 269zM477 1323q0 86 60.5 146.5t146.5 60.5t146.5 -60.5t60.5 -146.5t-60.5 -146.5t-146.5 -60.5t-146.5 60.5t-60.5 146.5z" />
<glyph unicode="&#xc0;" horiz-adv-x="1357" d="M41 102q0 29 12 60l490 1227q45 113 133 112q88 0 133 -112l496 -1227q12 -31 12 -60q0 -59 -45 -99t-105 -40q-90 0 -127 92l-110 281h-504l-107 -281q-35 -92 -129 -92q-59 0 -104 40t-45 99zM313 1872q0 51 36 87t87 36q20 0 43 -8l492 -185q80 -30 80 -114 q0 -51 -36 -87t-87 -36q-29 0 -45 6l-490 186q-80 31 -80 115zM537 623h280l-141 381z" />
<glyph unicode="&#xc1;" horiz-adv-x="1357" d="M41 102q0 29 12 60l490 1227q45 113 133 112q88 0 133 -112l496 -1227q12 -31 12 -60q0 -59 -45 -99t-105 -40q-90 0 -127 92l-110 281h-504l-107 -281q-35 -92 -129 -92q-59 0 -104 40t-45 99zM270 1688q0 84 80 114l492 185q23 8 43 8q88 0 116 -82q7 -23 7 -41 q0 -84 -80 -115l-490 -186q-16 -6 -45 -6q-88 0 -114 84q-8 20 -9 39zM537 623h280l-141 381z" />
<glyph unicode="&#xc2;" horiz-adv-x="1357" d="M41 102q0 29 12 60l490 1227q45 113 133 112q88 0 133 -112l496 -1227q12 -31 12 -60q0 -59 -45 -99t-105 -40q-90 0 -127 92l-110 281h-504l-107 -281q-35 -92 -129 -92q-59 0 -104 40t-45 99zM287 1688q0 63 53 100l336 235l338 -235q51 -34 51 -100q0 -51 -36 -87 t-87 -36q-39 0 -72 22l-194 137l-195 -137q-33 -23 -71 -22q-51 0 -87 35.5t-36 87.5zM537 623h280l-141 381z" />
<glyph unicode="&#xc3;" horiz-adv-x="1357" d="M41 102q0 29 12 60l490 1227q45 113 133 112q88 0 133 -112l496 -1227q12 -31 12 -60q0 -59 -45 -99t-105 -40q-90 0 -127 92l-110 281h-504l-107 -281q-35 -92 -129 -92q-59 0 -104 40t-45 99zM287 1677q0 109 67.5 183.5t171.5 74.5q98 0 211 -86q76 -57 90 -57 q12 0 23 31q6 20 12 41q25 72 101 71q49 0 81.5 -32.5t32.5 -79.5q0 -102 -69.5 -180t-169.5 -78q-98 0 -207 84q-80 61 -94 61q-12 0 -19 -22q-29 -123 -119 -123q-47 0 -79.5 32.5t-32.5 79.5zM537 623h280l-141 381z" />
<glyph unicode="&#xc4;" horiz-adv-x="1357" d="M41 102q0 29 12 60l490 1227q45 113 133 112q88 0 133 -112l496 -1227q12 -31 12 -60q0 -59 -45 -99t-105 -40q-90 0 -127 92l-110 281h-504l-107 -281q-35 -92 -129 -92q-59 0 -104 40t-45 99zM336 1847q0 55 40 95t95 40t95 -40t40 -95t-40 -95t-95 -40t-95 40t-40 95z M537 623h280l-141 381zM745 1847q0 55 40 95t96 40q55 0 95 -40t40 -95t-40 -95t-95 -40t-95.5 40t-40.5 95z" />
<glyph unicode="&#xc5;" horiz-adv-x="1357" d="M41 102q0 29 12 60l441 1106q-86 78 -86 198q0 113 77.5 191t190.5 78t190.5 -78t77.5 -191q0 -121 -86 -198l447 -1106q12 -31 12 -60q0 -59 -45 -99t-105 -40q-90 0 -127 92l-110 281h-504l-107 -281q-35 -92 -129 -92q-59 0 -104 40t-45 99zM537 623h280l-141 381z M592 1466q0 -37 23.5 -61.5t60.5 -24.5t60.5 24.5t23.5 61.5q0 35 -24.5 59.5t-59.5 24.5t-59.5 -24.5t-24.5 -59.5z" />
<glyph unicode="&#xc6;" horiz-adv-x="2072" d="M41 104q0 47 31 89l946 1277h792q63 0 103.5 -39.5t40.5 -103.5q0 -63 -40 -103t-104 -40h-575v-277h403q63 0 103.5 -40t40.5 -103t-40 -103t-104 -40h-403v-334h592q63 0 103 -40.5t40 -103.5t-40 -103t-103 -40h-879v375h-385l-260 -355q-43 -59 -113 -59 q-59 0 -104 42t-45 101zM776 662h172v231z" />
<glyph unicode="&#xc7;" horiz-adv-x="1347" d="M102 729q0 342 97 518q135 246 475 246q209 0 432 -94q86 -37 86 -127q0 -59 -40 -104.5t-99 -45.5q-27 0 -68 17q-33 12 -63 26q-115 41 -248 41q-166 0 -225.5 -100t-59.5 -377q0 -256 75 -366.5t251 -110.5q147 0 272 47q100 37 129 37q61 0 100 -44.5t39 -105.5 q0 -94 -96 -129l-84 -28q-162 -59 -332 -64v-4q-2 0 -2 -2v-2l-14 -29q88 -25 143.5 -91t55.5 -154q0 -113 -92 -183q-82 -61 -197 -61q-190 0 -264 100q-27 37 -27 76q0 53 36 88t89 35t76 -29q37 -45 106 -45q37 0 37 25q0 49 -112 86q-96 33 -162 32l92 185 q-324 94 -387 500q-18 117 -19 237z" />
<glyph unicode="&#xc8;" d="M143 0v1470h863q63 0 103 -39.5t40 -103.5q0 -63 -40 -103t-103 -40h-576v-277h404q63 0 103 -40t40 -103t-40 -103t-103 -40h-404v-334h592q63 0 103 -40.5t40 -103.5t-40 -103t-103 -40h-879zM229 1872q0 51 36 87t87 36q20 0 43 -8l492 -185q80 -30 80 -114 q0 -51 -36 -87t-87 -36q-29 0 -45 6l-490 186q-80 31 -80 115z" />
<glyph unicode="&#xc9;" d="M143 0v1470h863q63 0 103 -39.5t40 -103.5q0 -63 -40 -103t-103 -40h-576v-277h404q63 0 103 -40t40 -103t-40 -103t-103 -40h-404v-334h592q63 0 103 -40.5t40 -103.5t-40 -103t-103 -40h-879zM229 1688q0 84 80 114l492 185q23 8 43 8q88 0 117 -82q6 -23 6 -41 q0 -84 -80 -115l-490 -186q-16 -6 -45 -6q-88 0 -114 84q-8 20 -9 39z" />
<glyph unicode="&#xca;" d="M143 0v1470h863q63 0 103 -39.5t40 -103.5q0 -63 -40 -103t-103 -40h-576v-277h404q63 0 103 -40t40 -103t-40 -103t-103 -40h-404v-334h592q63 0 103 -40.5t40 -103.5t-40 -103t-103 -40h-879zM229 1688q0 63 54 100l335 235l338 -235q52 -34 52 -100q0 -51 -36 -87 t-87 -36q-39 0 -72 22l-195 137l-194 -137q-33 -23 -72 -22q-51 0 -87 35.5t-36 87.5z" />
<glyph unicode="&#xcb;" d="M143 0v1470h863q63 0 103 -39.5t40 -103.5q0 -63 -40 -103t-103 -40h-576v-277h404q63 0 103 -40t40 -103t-40 -103t-103 -40h-404v-334h592q63 0 103 -40.5t40 -103.5t-40 -103t-103 -40h-879zM268 1847q0 55 40 95t95 40t95.5 -40t40.5 -95t-40 -95t-96 -40 q-55 0 -95 40t-40 95zM678 1847q0 55 40 95t95 40t95 -40t40 -95t-40 -95t-95 -40t-95 40t-40 95z" />
<glyph unicode="&#xcc;" horiz-adv-x="573" d="M-92 1872q0 51 36 87t87 36q20 0 43 -8l491 -185q80 -30 80 -114q0 -51 -36 -87t-87 -36q-29 0 -45 6l-489 186q-80 31 -80 115zM143 106v1258q0 63 40 103t104 40q63 0 103 -40t40 -103v-1258q0 -63 -40 -103t-103 -40t-103.5 40t-40.5 103z" />
<glyph unicode="&#xcd;" horiz-adv-x="573" d="M-117 1686q0 84 80 114l492 185q23 8 43 8q88 0 116 -82q7 -23 7 -41q0 -84 -80 -115l-490 -186q-23 -6 -45 -6q-88 0 -117 84q-6 20 -6 39zM143 106v1258q0 63 40 103t104 40q63 0 103 -40t40 -103v-1258q0 -63 -40 -103t-103 -40t-103.5 40t-40.5 103z" />
<glyph unicode="&#xce;" horiz-adv-x="573" d="M-102 1688q0 63 53 100l336 235l338 -235q51 -34 51 -100q0 -51 -36 -87t-87 -36q-39 0 -72 22l-194 137l-195 -137q-33 -23 -72 -22q-51 0 -86.5 35.5t-35.5 87.5zM143 106v1258q0 63 40 103t104 40q63 0 103 -40t40 -103v-1258q0 -63 -40 -103t-103 -40t-103.5 40 t-40.5 103z" />
<glyph unicode="&#xcf;" horiz-adv-x="573" d="M-51 1847q0 55 40 95t95 40t95 -40t40 -95t-40 -95t-95 -40t-95 40t-40 95zM143 106v1258q0 63 40 103t104 40q63 0 103 -40t40 -103v-1258q0 -63 -40 -103t-103 -40t-103.5 40t-40.5 103zM358 1847q0 55 40 95t96 40q55 0 95 -40t40 -95t-40 -95t-95 -40t-95.5 40 t-40.5 95z" />
<glyph unicode="&#xd0;" horiz-adv-x="1550" d="M0 737q0 63 40 103.5t103 40.5h117v589h504q299 0 477 -157q207 -186 207 -557q0 -360 -199 -563q-188 -193 -485 -193h-504v594h-117q-63 0 -103 40t-40 103zM547 287h217q276 0 366 252q31 88 31 217q0 242 -112 344q-94 84 -285 84h-217v-303h117q63 0 103 -40 t40 -104q0 -63 -40 -103t-103 -40h-117v-307z" />
<glyph unicode="&#xd1;" horiz-adv-x="1435" d="M143 106v1235q0 68 29 113q35 53 98 53q76 0 133 -82l603 -860v799q0 63 39.5 103t103.5 40q63 0 103 -40t40 -103v-1241q0 -66 -30 -111q-33 -53 -97 -53q-76 0 -133 82l-602 860v-795q0 -63 -40 -103t-103 -40t-103.5 40t-40.5 103zM297 1677q0 109 67.5 183.5 t172.5 74.5q98 0 211 -86q76 -57 90 -57q12 0 22 31q6 20 12 41q25 72 101 71q49 0 81.5 -32.5t32.5 -79.5q0 -102 -69.5 -180t-169.5 -78q-98 0 -207 84q-80 61 -94 61q-12 0 -19 -22q-29 -123 -118 -123q-47 0 -80 32.5t-33 79.5z" />
<glyph unicode="&#xd2;" horiz-adv-x="1466" d="M102 723q0 305 95 491q86 168 288 242q104 37 252 37q270 0 424 -137q203 -182 203 -633q0 -307 -92 -487q-86 -172 -283 -246q-104 -37 -252 -37q-270 0 -428 137q-207 178 -207 633zM389 723q0 -250 60 -350q78 -133 288 -133q207 0 283 131q57 102 57 352t-57 352 q-76 131 -283 131q-211 0 -288 -131q-59 -102 -60 -352zM393 1872q0 51 36 87t87 36q20 0 43 -8l492 -185q79 -30 79 -114q0 -51 -35.5 -87t-86.5 -36q-29 0 -45 6l-490 186q-80 31 -80 115z" />
<glyph unicode="&#xd3;" horiz-adv-x="1466" d="M102 723q0 305 95 491q86 168 288 242q104 37 252 37q270 0 424 -137q203 -182 203 -633q0 -307 -92 -487q-86 -172 -283 -246q-104 -37 -252 -37q-270 0 -428 137q-207 178 -207 633zM352 1688q0 84 80 114l492 185q23 8 43 8q88 0 116 -82q7 -23 7 -41q0 -84 -80 -115 l-490 -186q-16 -6 -45 -6q-88 0 -115 84q-8 20 -8 39zM389 723q0 -250 60 -350q78 -133 288 -133q207 0 283 131q57 102 57 352t-57 352q-76 131 -283 131q-211 0 -288 -131q-59 -102 -60 -352z" />
<glyph unicode="&#xd4;" horiz-adv-x="1466" d="M102 723q0 305 95 491q86 168 288 242q104 37 252 37q270 0 424 -137q203 -182 203 -633q0 -307 -92 -487q-86 -172 -283 -246q-104 -37 -252 -37q-270 0 -428 137q-207 178 -207 633zM346 1686q0 63 53 100l336 235l338 -235q51 -34 51 -100q0 -51 -35.5 -87t-87.5 -36 q-39 0 -71 22l-195 137l-194 -137q-33 -23 -72 -22q-51 0 -87 35.5t-36 87.5zM389 723q0 -250 60 -350q78 -133 288 -133q207 0 283 131q57 102 57 352t-57 352q-76 131 -283 131q-211 0 -288 -131q-59 -102 -60 -352z" />
<glyph unicode="&#xd5;" horiz-adv-x="1466" d="M102 723q0 305 95 491q86 168 288 242q104 37 252 37q270 0 424 -137q203 -182 203 -633q0 -307 -92 -487q-86 -172 -283 -246q-104 -37 -252 -37q-270 0 -428 137q-207 178 -207 633zM358 1677q0 109 68 183.5t172 74.5q98 0 211 -86q76 -57 90 -57q12 0 23 31 q6 20 12 41q25 72 100 71q49 0 82 -32.5t33 -79.5q0 -102 -69.5 -180t-170.5 -78q-98 0 -207 84q-80 61 -94 61q-12 0 -18 -22q-29 -123 -119 -123q-47 0 -80 32.5t-33 79.5zM389 723q0 -250 60 -350q78 -133 288 -133q207 0 283 131q57 102 57 352t-57 352 q-76 131 -283 131q-211 0 -288 -131q-59 -102 -60 -352z" />
<glyph unicode="&#xd6;" horiz-adv-x="1466" d="M102 723q0 305 95 491q86 168 288 242q104 37 252 37q270 0 424 -137q203 -182 203 -633q0 -307 -92 -487q-86 -172 -283 -246q-104 -37 -252 -37q-270 0 -428 137q-207 178 -207 633zM389 723q0 -250 60 -350q78 -133 288 -133q207 0 283 131q57 102 57 352t-57 352 q-76 131 -283 131q-211 0 -288 -131q-59 -102 -60 -352zM397 1847q0 55 40 95t95 40t95.5 -40t40.5 -95t-40 -95t-96 -40q-55 0 -95 40t-40 95zM807 1847q0 55 40 95t95 40t95 -40t40 -95t-40 -95t-95 -40t-95 40t-40 95z" />
<glyph unicode="&#xd7;" horiz-adv-x="1077" d="M61 111q0 47 37 92l252 301l-252 301q-37 45 -37 92q0 59 44.5 102t103.5 43q63 0 108 -53l222 -262l223 262q45 53 106 53q59 0 103.5 -43t44.5 -102q0 -51 -35 -92l-254 -301l254 -301q35 -41 35 -92q0 -59 -44 -102.5t-104 -43.5q-61 0 -106 53l-223 263l-222 -263 q-45 -53 -108 -53q-59 0 -103.5 43t-44.5 103z" />
<glyph unicode="&#xd8;" horiz-adv-x="1466" d="M102 723q0 305 95 491q86 168 288 242q104 37 252 37q84 0 156 -12l86 213q35 84 123 84q86 0 123 -76q12 -25 12 -57q0 -27 -10 -52l-90 -217q227 -180 227 -653q0 -307 -92 -487q-86 -172 -283 -246q-104 -37 -252 -37q-80 0 -166 14l-86 -213q-35 -84 -123 -84 q-57 0 -96 39t-39 94q0 27 11 52l90 221q-225 178 -226 647zM389 723q0 -250 60 -350q78 -133 288 -133q207 0 283 131q57 102 57 352t-57 352q-76 131 -283 131q-211 0 -288 -131q-59 -102 -60 -352z" />
<glyph unicode="&#xd9;" horiz-adv-x="1417" d="M143 420v944q0 63 40 103t104 40q63 0 103 -40t40 -103v-938q0 -109 90 -145q57 -27 189 -27q129 0 188 25q90 39 90 147v938q0 63 40 103t103 40t103.5 -40t40.5 -103v-944q0 -207 -127 -322q-143 -131 -438 -131t-439 131q-127 115 -127 322zM332 1872q0 51 35.5 87 t87.5 36q20 0 43 -8l491 -185q80 -30 80 -114q0 -51 -36 -87t-87 -36q-29 0 -45 6l-489 186q-80 31 -80 115z" />
<glyph unicode="&#xda;" horiz-adv-x="1417" d="M143 420v944q0 63 40 103t104 40q63 0 103 -40t40 -103v-938q0 -109 90 -145q57 -27 189 -27q129 0 188 25q90 39 90 147v938q0 63 40 103t103 40t103.5 -40t40.5 -103v-944q0 -207 -127 -322q-143 -131 -438 -131t-439 131q-127 115 -127 322zM332 1688q0 84 80 114 l491 185q23 8 43 8q88 0 117 -82q6 -23 6 -41q0 -84 -80 -115l-489 -186q-16 -6 -45 -6q-88 0 -115 84q-8 20 -8 39z" />
<glyph unicode="&#xdb;" horiz-adv-x="1417" d="M143 420v944q0 63 40 103t104 40q63 0 103 -40t40 -103v-938q0 -109 90 -145q57 -27 189 -27q129 0 188 25q90 39 90 147v938q0 63 40 103t103 40t103.5 -40t40.5 -103v-944q0 -207 -127 -322q-143 -131 -438 -131t-439 131q-127 115 -127 322zM319 1686q0 63 54 100 l336 235l338 -235q51 -34 51 -100q0 -51 -36 -87t-87 -36q-39 0 -72 22l-194 137l-195 -137q-33 -23 -72 -22q-51 0 -87 35.5t-36 87.5z" />
<glyph unicode="&#xdc;" horiz-adv-x="1417" d="M143 420v944q0 63 40 103t104 40q63 0 103 -40t40 -103v-938q0 -109 90 -145q57 -27 189 -27q129 0 188 25q90 39 90 147v938q0 63 40 103t103 40t103.5 -40t40.5 -103v-944q0 -207 -127 -322q-143 -131 -438 -131t-439 131q-127 115 -127 322zM369 1847q0 55 40 95 t95 40t95 -40t40 -95t-40 -95t-95 -40t-95 40t-40 95zM778 1847q0 55 40 95t95 40t95.5 -40t40.5 -95t-40 -95t-96 -40q-55 0 -95 40t-40 95z" />
<glyph unicode="&#xdd;" horiz-adv-x="1261" d="M41 1366q0 59 45 100t104 41q74 0 117 -67l326 -504l321 504q43 68 117 67q59 0 104.5 -42t45.5 -99q0 -41 -25 -80l-420 -657v-523q0 -63 -40 -103t-103 -40t-103.5 40t-40.5 103v523l-423 657q-25 39 -25 80zM270 1688q0 84 80 114l492 185q23 8 43 8q88 0 116 -82 q7 -23 7 -41q0 -84 -80 -115l-490 -186q-16 -6 -45 -6q-88 0 -114 84q-8 20 -9 39z" />
<glyph unicode="&#xde;" horiz-adv-x="1239" d="M143 106v1258q0 63 40 103t104 40q63 0 103 -40t40 -103v-201h281q197 0 319 -129q107 -116 107 -284q0 -135 -72 -248t-195 -168q-88 -41 -200 -41h-240v-187q0 -63 -40 -103t-103 -40t-103.5 40t-40.5 103zM430 580h240q80 0 130 46t50 124q0 127 -139 127h-281v-297z " />
<glyph unicode="&#xdf;" horiz-adv-x="1439" d="M10 848q0 61 41 97t103 36h86v195q0 162 135 249q115 74 282 74q145 0 267 -53q137 -59 209 -172q45 -74 45 -168q0 -156 -138 -258q-41 -27 -82 -55q-57 -41 -57 -68q0 -51 119 -95t164 -67q88 -47 131 -117q33 -53 33 -133q0 -178 -140 -270q-111 -74 -260 -74 q-190 0 -284 76q-82 63 -82 154q0 125 123 125q51 0 104 -48q47 -41 139 -40q94 0 103 59q2 12 2 18q0 43 -113 86q-129 49 -166 70q-82 45 -127 121q-33 53 -33 135q0 113 72 188q29 29 94.5 70t89.5 70q20 23 21 53q0 59 -82 102q-74 39 -162 39q-121 0 -121 -71v-1070 q0 -63 -40 -103t-103 -40t-103 40t-40 103v609h-86q-61 0 -102.5 35.5t-41.5 97.5z" />
<glyph unicode="&#xe0;" horiz-adv-x="1179" d="M92 289q0 133 94 231q102 106 293 121l260 18l-2 82q0 35 -88 35q-86 0 -231 -33q-31 -8 -41 -12q-27 -10 -55 -10q-57 0 -98.5 39t-41.5 96q0 88 97 123q166 61 354 61q250 0 352 -139q37 -53 39 -133l12 -686q0 -63 -40 -103t-103 -40q-53 0 -92 30.5t-49 81.5l-88 -39 q-102 -45 -213 -45q-156 0 -254 84q-104 88 -105 238zM229 1450q0 51 36 87t87 36q20 0 43 -8l492 -185q80 -30 80 -114q0 -51 -36 -87t-87 -36q-29 0 -45 6l-490 186q-80 31 -80 115zM375 317q0 -96 110 -96q45 0 103 21l157 57l-2 119l-299 -21q-70 -4 -69 -80z" />
<glyph unicode="&#xe1;" horiz-adv-x="1179" d="M92 289q0 133 94 231q102 106 293 121l260 18l-2 82q0 35 -88 35q-86 0 -231 -33q-31 -8 -41 -12q-27 -10 -55 -10q-57 0 -98.5 39t-41.5 96q0 88 97 123q166 61 354 61q250 0 352 -139q37 -53 39 -133l12 -686q0 -63 -40 -103t-103 -40q-53 0 -92 30.5t-49 81.5l-88 -39 q-102 -45 -213 -45q-156 0 -254 84q-104 88 -105 238zM229 1266q0 84 80 114l492 185q23 8 43 8q88 0 117 -82q6 -23 6 -41q0 -84 -80 -115l-490 -186q-16 -6 -45 -6q-88 0 -114 84q-8 20 -9 39zM375 317q0 -96 110 -96q45 0 103 21l157 57l-2 119l-299 -21q-70 -4 -69 -80z " />
<glyph unicode="&#xe2;" horiz-adv-x="1179" d="M92 289q0 133 94 231q102 106 293 121l260 18l-2 82q0 35 -88 35q-86 0 -231 -33q-31 -8 -41 -12q-27 -10 -55 -10q-57 0 -98.5 39t-41.5 96q0 88 97 123q166 61 354 61q250 0 352 -139q37 -53 39 -133l12 -686q0 -63 -40 -103t-103 -40q-53 0 -92 30.5t-49 81.5l-88 -39 q-102 -45 -213 -45q-156 0 -254 84q-104 88 -105 238zM219 1266q0 63 53 100l336 236l338 -236q51 -34 51 -100q0 -51 -35.5 -87t-87.5 -36q-39 0 -71 22l-195 138l-194 -138q-33 -23 -72 -22q-51 0 -87 35.5t-36 87.5zM375 317q0 -96 110 -96q45 0 103 21l157 57l-2 119 l-299 -21q-70 -4 -69 -80z" />
<glyph unicode="&#xe3;" horiz-adv-x="1179" d="M92 289q0 133 94 231q102 106 293 121l260 18l-2 82q0 35 -88 35q-86 0 -231 -33q-31 -8 -41 -12q-27 -10 -55 -10q-57 0 -98.5 39t-41.5 96q0 88 97 123q166 61 354 61q250 0 352 -139q37 -53 39 -133l12 -686q0 -63 -40 -103t-103 -40q-53 0 -92 30.5t-49 81.5l-88 -39 q-102 -45 -213 -45q-156 0 -254 84q-104 88 -105 238zM215 1323q0 109 67.5 183.5t172.5 74.5q98 0 211 -86q76 -57 90 -57q12 0 22 30q6 20 13 41q25 72 100 72q49 0 82 -33t33 -80q0 -102 -70 -180t-170 -78q-98 0 -207 84q-80 61 -94 62q-12 0 -19 -23 q-29 -123 -118 -123q-47 0 -80 33t-33 80zM375 317q0 -96 110 -96q45 0 103 21l157 57l-2 119l-299 -21q-70 -4 -69 -80z" />
<glyph unicode="&#xe4;" horiz-adv-x="1179" d="M92 289q0 133 94 231q102 106 293 121l260 18l-2 82q0 35 -88 35q-86 0 -231 -33q-31 -8 -41 -12q-27 -10 -55 -10q-57 0 -98.5 39t-41.5 96q0 88 97 123q166 61 354 61q250 0 352 -139q37 -53 39 -133l12 -686q0 -63 -40 -103t-103 -40q-53 0 -92 30.5t-49 81.5l-88 -39 q-102 -45 -213 -45q-156 0 -254 84q-104 88 -105 238zM262 1438q0 55 40 95t95 40t95 -40t40 -95t-39.5 -95t-95.5 -40q-55 0 -95 39.5t-40 95.5zM375 317q0 -96 110 -96q45 0 103 21l157 57l-2 119l-299 -21q-70 -4 -69 -80zM672 1438q0 55 40 95t95 40t95 -40t40 -95 t-40 -95t-95 -40t-95 39.5t-40 95.5z" />
<glyph unicode="&#xe5;" horiz-adv-x="1179" d="M92 289q0 133 94 231q102 106 293 121l260 18l-2 82q0 35 -88 35q-86 0 -231 -33q-31 -8 -41 -12q-27 -10 -55 -10q-57 0 -98.5 39t-41.5 96q0 88 97 123q166 61 354 61q250 0 352 -139q37 -53 39 -133l12 -686q0 -63 -40 -103t-103 -40q-53 0 -92 30.5t-49 81.5l-88 -39 q-102 -45 -213 -45q-156 0 -254 84q-104 88 -105 238zM369 1395q0 113 77.5 190.5t190.5 77.5t190.5 -77.5t77.5 -190.5t-77.5 -192t-190.5 -79t-190.5 80t-77.5 191zM375 317q0 -96 110 -96q45 0 103 21l157 57l-2 119l-299 -21q-70 -4 -69 -80zM553 1395q0 -37 23.5 -61.5 t60.5 -24.5t60.5 24.5t23.5 61.5q0 35 -24.5 59.5t-59.5 24.5t-59.5 -24.5t-24.5 -59.5z" />
<glyph unicode="&#xe6;" horiz-adv-x="1830" d="M92 289q0 133 94 231q102 106 293 121l260 18l-2 82q0 35 -88 35q-86 0 -231 -33q-31 -8 -41 -12q-27 -10 -55 -10q-57 0 -98.5 39t-41.5 96q0 88 97 123q166 61 354 61q190 0 295 -79q106 80 272 79q211 0 330 -96q131 -106 131 -311q0 -137 -10 -246h-629 q33 -190 233 -190q150 0 261 71q41 27 83 27q57 0 98.5 -40t41.5 -97q0 -70 -70 -113q-182 -115 -414 -115q-254 0 -397 170l-194 -88q-100 -45 -213 -45q-156 0 -254 84q-104 88 -105 238zM375 317q0 -96 110 -96q45 0 103 21l170 61q-12 57 -19 115l-295 -21 q-70 -4 -69 -80zM1026 623h373q0 2 2 8v8q0 86 -60 121q-47 25 -137 24q-154 0 -178 -161z" />
<glyph unicode="&#xe7;" horiz-adv-x="1173" d="M102 492q0 258 117 399q121 150 350 149q203 0 346 -82q76 -43 76 -116q0 -57 -39 -96t-96 -39q-31 0 -78 20q-18 8 -55 23q-70 25 -154 24q-133 0 -166 -141q-14 -55 -14 -141q0 -147 62 -222q49 -63 147 -63q131 0 270 88q45 29 86 29q55 0 96.5 -41.5t41.5 -96.5 q0 -68 -68 -110q-190 -121 -373 -133l-6 -15q88 -25 143.5 -91t55.5 -154q0 -113 -92 -183q-82 -61 -197 -61q-190 0 -264 100q-27 37 -27 76q0 53 36 88t89 35t76 -29q37 -45 106 -45q37 0 37 25q0 49 -112 86q-96 33 -162 32l82 162q-313 111 -314 523z" />
<glyph unicode="&#xe8;" horiz-adv-x="1196" d="M102 479q0 418 285 533q74 29 178 28q211 0 330 -96q131 -106 131 -311q0 -137 -10 -246h-629q33 -190 234 -190q150 0 260 71q41 27 84 27q57 0 98 -40t41 -97q0 -70 -70 -113q-182 -115 -413 -115q-244 0 -383 156q-135 150 -136 393zM223 1450q0 51 36 87t87 36 q20 0 43 -8l492 -185q80 -30 80 -114q0 -51 -36 -87t-87 -36q-29 0 -45 6l-490 186q-80 31 -80 115zM391 623h373q0 2 2 8v8q0 86 -59 121q-47 25 -138 24q-154 0 -178 -161z" />
<glyph unicode="&#xe9;" horiz-adv-x="1196" d="M102 479q0 418 285 533q74 29 178 28q211 0 330 -96q131 -106 131 -311q0 -137 -10 -246h-629q33 -190 234 -190q150 0 260 71q41 27 84 27q57 0 98 -40t41 -97q0 -70 -70 -113q-182 -115 -413 -115q-244 0 -383 156q-135 150 -136 393zM188 1266q0 84 80 114l492 185 q23 8 43 8q88 0 117 -82q6 -23 6 -41q0 -84 -80 -115l-490 -186q-16 -6 -45 -6q-88 0 -114 84q-8 20 -9 39zM391 623h373q0 2 2 8v8q0 86 -59 121q-47 25 -138 24q-154 0 -178 -161z" />
<glyph unicode="&#xea;" horiz-adv-x="1196" d="M102 479q0 418 285 533q74 29 178 28q211 0 330 -96q131 -106 131 -311q0 -137 -10 -246h-629q33 -190 234 -190q150 0 260 71q41 27 84 27q57 0 98 -40t41 -97q0 -70 -70 -113q-182 -115 -413 -115q-244 0 -383 156q-135 150 -136 393zM186 1266q0 63 54 100l335 236 l338 -236q52 -34 52 -100q0 -51 -36 -87t-87 -36q-39 0 -72 22l-195 138l-194 -138q-33 -23 -72 -22q-51 0 -87 35.5t-36 87.5zM391 623h373q0 2 2 8v8q0 86 -59 121q-47 25 -138 24q-154 0 -178 -161z" />
<glyph unicode="&#xeb;" horiz-adv-x="1196" d="M102 479q0 418 285 533q74 29 178 28q211 0 330 -96q131 -106 131 -311q0 -137 -10 -246h-629q33 -190 234 -190q150 0 260 71q41 27 84 27q57 0 98 -40t41 -97q0 -70 -70 -113q-182 -115 -413 -115q-244 0 -383 156q-135 150 -136 393zM252 1438q0 55 40 95t95 40 t95 -40t40 -95t-40 -95t-95 -40t-95 39.5t-40 95.5zM391 623h373q0 2 2 8v8q0 86 -59 121q-47 25 -138 24q-154 0 -178 -161zM662 1438q0 55 39.5 95t95.5 40q55 0 95 -40t40 -95t-40 -95t-95 -40t-95 39.5t-40 95.5z" />
<glyph unicode="&#xec;" horiz-adv-x="573" d="M-43 1450q0 51 36 87t87 36q20 0 43 -8l491 -185q80 -30 80 -114q0 -51 -35.5 -87t-87.5 -36q-29 0 -45 6l-489 186q-80 31 -80 115zM143 111v766q0 63 40 103t104 40q63 0 103 -40t40 -103v-766q0 -63 -40 -103.5t-103 -40.5t-103.5 40t-40.5 104z" />
<glyph unicode="&#xed;" horiz-adv-x="573" d="M-78 1266q0 84 80 114l492 185q23 8 43 8q88 0 116 -82q6 -23 6 -41q0 -84 -79 -115l-490 -186q-16 -6 -45 -6q-88 0 -117 84q-6 20 -6 39zM143 111v766q0 63 40 103t104 40q63 0 103 -40t40 -103v-766q0 -63 -40 -103.5t-103 -40.5t-103.5 40t-40.5 104z" />
<glyph unicode="&#xee;" horiz-adv-x="573" d="M-102 1266q0 63 53 100l336 236l338 -236q51 -34 51 -100q0 -51 -36 -87t-87 -36q-39 0 -72 22l-194 138l-195 -138q-33 -23 -72 -22q-51 0 -86.5 35.5t-35.5 87.5zM143 111v766q0 63 40 103t104 40q63 0 103 -40t40 -103v-766q0 -63 -40 -103.5t-103 -40.5t-103.5 40 t-40.5 104z" />
<glyph unicode="&#xef;" horiz-adv-x="573" d="M-51 1438q0 55 40 95t95 40t95 -40t40 -95t-40 -95t-95 -40t-95 39.5t-40 95.5zM143 111v766q0 63 40 103t104 40q63 0 103 -40t40 -103v-766q0 -63 -40 -103.5t-103 -40.5t-103.5 40t-40.5 104zM358 1438q0 55 40 95t96 40q55 0 95 -40t40 -95t-40 -95t-95 -40 t-95.5 39.5t-40.5 95.5z" />
<glyph unicode="&#xf0;" horiz-adv-x="1249" d="M102 426q0 248 164 369q133 96 359 96q51 0 123 -10q-31 53 -62 96l-106 -41q-27 -10 -56 -10q-59 0 -99 44t-40 105q0 78 68 117q-41 23 -82 45q-49 31 -67.5 61.5t-18.5 67.5q0 59 41 104.5t100 45.5q43 0 68 -17q129 -51 274 -186l119 43l28 8q12 2 27 2q59 0 99 -44 t40 -105q0 -94 -94 -130l-22 -8q182 -289 182 -633v-20q0 -250 -164 -369q-133 -96 -358 -96q-236 0 -371 107q-152 119 -152 358zM389 426q0 -96 48 -137t188 -41q137 0 186 40t49 138q0 104 -59 145q-53 33 -176 33q-137 0 -186.5 -40t-49.5 -138z" />
<glyph unicode="&#xf1;" d="M143 106v793q0 63 40 103t104 40q119 0 139 -108l86 39q104 47 219 47q162 0 266 -88q106 -94 107 -250v-576q0 -63 -40 -103t-103 -40t-103.5 40t-40.5 103v596q0 57 -84 58q-59 0 -119 -23l-184 -69v-562q0 -63 -40 -103t-103 -40t-103.5 40t-40.5 103zM236 1323 q0 109 67.5 183.5t171.5 74.5q98 0 211 -86q76 -57 90 -57q12 0 23 30q6 20 12 41q25 72 100 72q49 0 82 -33t33 -80q0 -102 -69.5 -180t-170.5 -78q-98 0 -206 84q-80 61 -95 62q-12 0 -18 -23q-29 -123 -119 -123q-47 0 -79.5 33t-32.5 80z" />
<glyph unicode="&#xf2;" d="M102 500q0 276 148 415q133 125 373 125q242 0 374 -122q148 -137 148 -418q0 -260 -129 -410q-135 -158 -391 -158t-394 158q-129 147 -129 410zM270 1450q0 51 36 87t87 36q20 0 43 -8l492 -185q80 -30 80 -114q0 -51 -36 -87t-87 -36q-29 0 -45 6l-490 186 q-80 31 -80 115zM389 500q0 -301 236 -301q233 0 233 301q0 158 -55 219q-53 55 -180 55q-135 0 -189 -72q-45 -61 -45 -202z" />
<glyph unicode="&#xf3;" d="M102 500q0 276 148 415q133 125 373 125q242 0 374 -122q148 -137 148 -418q0 -260 -129 -410q-135 -158 -391 -158t-394 158q-129 147 -129 410zM250 1266q0 84 80 114l491 185q23 8 43 8q88 0 117 -82q6 -23 6 -41q0 -84 -80 -115l-489 -186q-16 -6 -45 -6 q-88 0 -115 84q-8 20 -8 39zM389 500q0 -301 236 -301q233 0 233 301q0 158 -55 219q-53 55 -180 55q-135 0 -189 -72q-45 -61 -45 -202z" />
<glyph unicode="&#xf4;" d="M102 500q0 276 148 415q133 125 373 125q242 0 374 -122q148 -137 148 -418q0 -260 -129 -410q-135 -158 -391 -158t-394 158q-129 147 -129 410zM236 1266q0 63 53 100l336 236l338 -236q51 -34 51 -100q0 -51 -36 -87t-87 -36q-39 0 -72 22l-194 138l-195 -138 q-33 -23 -72 -22q-51 0 -86.5 35.5t-35.5 87.5zM389 500q0 -301 236 -301q233 0 233 301q0 158 -55 219q-53 55 -180 55q-135 0 -189 -72q-45 -61 -45 -202z" />
<glyph unicode="&#xf5;" d="M102 500q0 276 148 415q133 125 373 125q242 0 374 -122q148 -137 148 -418q0 -260 -129 -410q-135 -158 -391 -158t-394 158q-129 147 -129 410zM248 1323q0 109 67.5 183.5t171.5 74.5q98 0 211 -86q76 -57 90 -57q12 0 23 30q6 20 12 41q25 72 101 72q49 0 81.5 -33 t32.5 -80q0 -102 -69.5 -180t-169.5 -78q-98 0 -207 84q-80 61 -94 62q-12 0 -19 -23q-29 -123 -119 -123q-47 0 -79.5 33t-32.5 80zM389 500q0 -301 236 -301q233 0 233 301q0 158 -55 219q-53 55 -180 55q-135 0 -189 -72q-45 -61 -45 -202z" />
<glyph unicode="&#xf6;" d="M102 500q0 276 148 415q133 125 373 125q242 0 374 -122q148 -137 148 -418q0 -260 -129 -410q-135 -158 -391 -158t-394 158q-129 147 -129 410zM283 1438q0 55 39.5 95t95.5 40q55 0 95 -40t40 -95t-40 -95t-95 -40t-95 39.5t-40 95.5zM389 500q0 -301 236 -301 q233 0 233 301q0 158 -55 219q-53 55 -180 55q-135 0 -189 -72q-45 -61 -45 -202zM692 1438q0 55 40 95t95 40t95.5 -40t40.5 -95t-40 -95t-96 -40q-55 0 -95 39.5t-40 95.5z" />
<glyph unicode="&#xf7;" horiz-adv-x="1073" d="M61 504q0 63 40 103t104 40h663q63 0 103.5 -40t40.5 -103t-40 -103.5t-104 -40.5h-663q-63 0 -103.5 40t-40.5 104zM375 125q0 68 46 115t114 47t114.5 -47t46.5 -115t-47 -114t-114 -46q-66 0 -113 47t-47 113zM375 879q0 68 46 114.5t114 46.5t114.5 -46.5 t46.5 -114.5t-47 -114t-114 -46q-66 0 -113 47t-47 113z" />
<glyph unicode="&#xf8;" d="M102 500q0 276 148 415q133 125 373 125q53 0 125 -10l63 131q33 70 117 70q53 0 91 -34t38 -85q0 -27 -13 -51l-63 -129q164 -137 164 -432q0 -260 -129 -410q-135 -158 -391 -158q-70 0 -127 13l-64 -127q-35 -70 -115 -70q-53 0 -91 34t-38 85q0 27 13 51l65 135 q-166 150 -166 447zM389 500q0 -301 236 -301q233 0 233 301q0 158 -55 219q-53 55 -180 55q-135 0 -189 -72q-45 -61 -45 -202z" />
<glyph unicode="&#xf9;" d="M143 315v562q0 63 40 103t104 40q63 0 103 -40t40 -103v-572q0 -68 86 -67q55 0 127 26l174 66v547q0 63 40 103t104 40q63 0 103 -40t40 -103v-779q0 -63 -40 -103t-103 -40q-119 0 -140 108l-86 -38q-104 -47 -219 -48q-164 0 -268.5 90.5t-104.5 247.5zM250 1450 q0 51 36 87t87 36q20 0 43 -8l491 -185q80 -30 80 -114q0 -51 -36 -87t-87 -36q-29 0 -45 6l-489 186q-80 31 -80 115z" />
<glyph unicode="&#xfa;" d="M143 315v562q0 63 40 103t104 40q63 0 103 -40t40 -103v-572q0 -68 86 -67q55 0 127 26l174 66v547q0 63 40 103t104 40q63 0 103 -40t40 -103v-779q0 -63 -40 -103t-103 -40q-119 0 -140 108l-86 -38q-104 -47 -219 -48q-164 0 -268.5 90.5t-104.5 247.5zM250 1266 q0 84 80 114l491 185q23 8 43 8q88 0 117 -82q6 -23 6 -41q0 -84 -80 -115l-489 -186q-16 -6 -45 -6q-88 0 -115 84q-8 20 -8 39z" />
<glyph unicode="&#xfb;" d="M143 315v562q0 63 40 103t104 40q63 0 103 -40t40 -103v-572q0 -68 86 -67q55 0 127 26l174 66v547q0 63 40 103t104 40q63 0 103 -40t40 -103v-779q0 -63 -40 -103t-103 -40q-119 0 -140 108l-86 -38q-104 -47 -219 -48q-164 0 -268.5 90.5t-104.5 247.5zM229 1266 q0 63 54 100l335 236l338 -236q52 -34 52 -100q0 -51 -36 -87t-87 -36q-39 0 -72 22l-195 138l-194 -138q-33 -23 -72 -22q-51 0 -87 35.5t-36 87.5z" />
<glyph unicode="&#xfc;" d="M143 315v562q0 63 40 103t104 40q63 0 103 -40t40 -103v-572q0 -68 86 -67q55 0 127 26l174 66v547q0 63 40 103t104 40q63 0 103 -40t40 -103v-779q0 -63 -40 -103t-103 -40q-119 0 -140 108l-86 -38q-104 -47 -219 -48q-164 0 -268.5 90.5t-104.5 247.5zM285 1438 q0 55 40 95t95 40t95 -40t40 -95t-40 -95t-95 -40t-95 39.5t-40 95.5zM694 1438q0 55 40 95t95 40t95.5 -40t40.5 -95t-40 -95t-96 -40q-55 0 -95 39.5t-40 95.5z" />
<glyph unicode="&#xfd;" horiz-adv-x="1181" d="M-20 -238q0 55 38.5 91t94.5 36q33 0 65 -14q49 -23 98 -22q72 0 103 69l45 103l-365 790q-16 35 -16 64q0 59 46 100t106 41q88 0 124 -86l252 -588l273 590q39 84 127 84q59 0 104 -40t45 -99q0 -31 -16 -66l-463 -1005q-76 -166 -258 -207q-55 -12 -107 -13 q-150 0 -229 56q-68 45 -67 116zM229 1266q0 84 80 114l492 185q23 8 43 8q88 0 117 -82q6 -23 6 -41q0 -84 -80 -115l-490 -186q-16 -6 -45 -6q-88 0 -114 84q-8 20 -9 39z" />
<glyph unicode="&#xfe;" horiz-adv-x="1232" d="M143 -264v1653q0 63 40 103t104 40q63 0 103 -40t40 -103v-420q113 51 223 51q217 0 344 -127q133 -137 133 -389q0 -258 -136 -409.5t-365 -151.5q-109 0 -199 41v-248q0 -63 -40 -103.5t-103 -40.5t-103.5 40t-40.5 104zM430 270q82 -61 199 -61q154 0 198 158 q17 55 17 137q0 141 -56 203q-45 47 -135 47q-106 0 -223 -70v-414z" />
<glyph unicode="&#xff;" horiz-adv-x="1181" d="M-20 -238q0 55 38.5 91t94.5 36q33 0 65 -14q49 -23 98 -22q72 0 103 69l45 103l-365 790q-16 35 -16 64q0 59 46 100t106 41q88 0 124 -86l252 -588l273 590q39 84 127 84q59 0 104 -40t45 -99q0 -31 -16 -66l-463 -1005q-76 -166 -258 -207q-55 -12 -107 -13 q-150 0 -229 56q-68 45 -67 116zM248 1438q0 55 40 95t95 40t95 -40t40 -95t-40 -95t-95 -40t-95 39.5t-40 95.5zM657 1438q0 55 40 95t96 40q55 0 95 -40t40 -95t-40 -95t-95 -40t-95.5 39.5t-40.5 95.5z" />
<glyph unicode="&#x152;" horiz-adv-x="2041" d="M102 725q0 299 136 492q178 254 563 253h999q63 0 103.5 -39.5t40.5 -103.5q0 -63 -40 -103t-104 -40h-575v-277h403q63 0 103.5 -40t40.5 -103t-40 -103t-104 -40h-403v-334h592q63 0 103 -40.5t40 -103.5t-40 -103t-103 -40h-1016q-383 0 -561 242q-137 184 -138 483z M389 725q0 -209 80 -311q96 -127 332 -127h135v897h-135q-229 0 -328 -133q-84 -113 -84 -326z" />
<glyph unicode="&#x153;" horiz-adv-x="1953" d="M102 500q0 276 148 415q133 125 373 125t376 -125q115 125 324 125q211 0 330 -96q131 -106 131 -311q0 -137 -10 -246h-629q33 -190 233 -190q150 0 260 71q41 27 84 27q57 0 98.5 -40t41.5 -97q0 -70 -70 -113q-182 -115 -414 -115q-242 0 -377 148 q-135 -145 -376 -146q-256 0 -394 158q-129 147 -129 410zM389 500q0 -301 236 -301q233 0 233 301q0 158 -55 219q-53 55 -180 55q-135 0 -189 -72q-45 -61 -45 -202zM1149 623h373q0 2 2 8v8q0 86 -60 121q-47 25 -137 24q-154 0 -178 -161z" />
<glyph unicode="&#x178;" horiz-adv-x="1261" d="M41 1366q0 59 45 100t104 41q74 0 117 -67l326 -504l321 504q43 68 117 67q59 0 104.5 -42t45.5 -99q0 -41 -25 -80l-420 -657v-523q0 -63 -40 -103t-103 -40t-103.5 40t-40.5 103v523l-423 657q-25 39 -25 80zM291 1847q0 55 40 95t95 40t95 -40t40 -95t-40 -95t-95 -40 t-95 40t-40 95zM700 1847q0 55 40 95t96 40q55 0 95 -40t40 -95t-40 -95t-95 -40t-95.5 40t-40.5 95z" />
<glyph unicode="&#x2c6;" horiz-adv-x="1257" d="M240 1266q0 63 53 100l336 236l338 -236q51 -34 51 -100q0 -51 -36 -87t-87 -36q-39 0 -72 22l-194 138l-195 -138q-33 -23 -72 -22q-51 0 -86.5 35.5t-35.5 87.5z" />
<glyph unicode="&#x2dc;" horiz-adv-x="1220" d="M215 1323q0 109 67.5 183.5t172.5 74.5q98 0 211 -86q76 -57 90 -57q12 0 22 30q6 20 13 41q25 72 100 72q49 0 82 -33t33 -80q0 -102 -70 -180t-170 -78q-98 0 -207 84q-80 61 -94 62q-12 0 -19 -23q-29 -123 -118 -123q-47 0 -80 33t-33 80z" />
<glyph unicode="&#x2000;" horiz-adv-x="1011" />
<glyph unicode="&#x2001;" horiz-adv-x="2023" />
<glyph unicode="&#x2002;" horiz-adv-x="1011" />
<glyph unicode="&#x2003;" horiz-adv-x="2023" />
<glyph unicode="&#x2004;" horiz-adv-x="674" />
<glyph unicode="&#x2005;" horiz-adv-x="505" />
<glyph unicode="&#x2006;" horiz-adv-x="337" />
<glyph unicode="&#x2007;" horiz-adv-x="337" />
<glyph unicode="&#x2008;" horiz-adv-x="252" />
<glyph unicode="&#x2009;" horiz-adv-x="404" />
<glyph unicode="&#x200a;" horiz-adv-x="112" />
<glyph unicode="&#x2013;" horiz-adv-x="1024" d="M0 637q0 63 40 103t103 40h738q63 0 103 -40t40 -103t-40 -103t-103 -40h-738q-63 0 -103 39.5t-40 103.5z" />
<glyph unicode="&#x2014;" horiz-adv-x="2048" d="M0 637q0 63 40 103t103 40h1762q63 0 103 -40t40 -103t-40 -103t-103 -40h-1762q-63 0 -103 39.5t-40 103.5z" />
<glyph unicode="&#x2018;" horiz-adv-x="563" d="M102 872q0 23 11 54l170 495q33 98 131 99q61 0 105 -40.5t44 -99.5q0 -23 -10 -53l-170 -496q-33 -98 -131 -98q-61 0 -105.5 40t-44.5 99z" />
<glyph unicode="&#x2019;" horiz-adv-x="624" d="M20 872q0 23 11 54l170 495q33 98 131 99q61 0 105 -40.5t44 -99.5q0 -23 -10 -53l-170 -496q-33 -98 -131 -98q-61 0 -105.5 40t-44.5 99z" />
<glyph unicode="&#x201a;" horiz-adv-x="532" d="M0 -233q0 23 10 53l170 495q33 98 131 99q61 0 105.5 -40.5t44.5 -99.5q0 -23 -10 -53l-170 -495q-33 -98 -131 -99q-61 0 -105.5 40t-44.5 100z" />
<glyph unicode="&#x201c;" horiz-adv-x="1075" d="M102 872q0 23 11 54l170 495q33 98 131 99q61 0 105 -40.5t44 -99.5q0 -23 -10 -53l-170 -496q-33 -98 -131 -98q-61 0 -105.5 40t-44.5 99zM614 872q0 23 11 54l170 495q33 98 131 99q61 0 105 -40.5t44 -99.5q0 -23 -10 -53l-170 -496q-33 -98 -131 -98 q-61 0 -105.5 40t-44.5 99z" />
<glyph unicode="&#x201d;" horiz-adv-x="1136" d="M20 872q0 23 11 54l170 495q33 98 131 99q61 0 105 -40.5t44 -99.5q0 -23 -10 -53l-170 -496q-33 -98 -131 -98q-61 0 -105.5 40t-44.5 99zM532 872q0 23 11 54l170 495q33 98 131 99q61 0 105 -40.5t44 -99.5q0 -23 -10 -53l-170 -496q-33 -98 -131 -98q-61 0 -105.5 40 t-44.5 99z" />
<glyph unicode="&#x201e;" horiz-adv-x="1044" d="M0 -233q0 23 10 53l170 495q33 98 131 99q61 0 105.5 -40.5t44.5 -99.5q0 -23 -10 -53l-170 -495q-33 -98 -131 -99q-61 0 -105.5 40t-44.5 100zM512 -233q0 23 10 53l170 495q33 98 131 99q61 0 105.5 -40.5t44.5 -99.5q0 -23 -10 -53l-170 -495q-33 -98 -131 -99 q-61 0 -105.5 40t-44.5 100z" />
<glyph unicode="&#x2022;" horiz-adv-x="1273" d="M252 528q0 162 112.5 273.5t272.5 111.5q162 0 273.5 -112.5t111.5 -272.5q0 -162 -112.5 -273.5t-272.5 -111.5q-162 0 -273.5 113t-111.5 272z" />
<glyph unicode="&#x2026;" horiz-adv-x="1888" d="M123 172q0 86 60.5 146.5t146.5 60.5t146.5 -60.5t60.5 -146.5t-60.5 -146.5t-146.5 -60.5t-146.5 60.5t-60.5 146.5zM737 172q0 86 60.5 146.5t146.5 60.5t146.5 -60.5t60.5 -146.5t-60.5 -146.5t-146.5 -60.5t-146.5 60.5t-60.5 146.5zM1352 172q0 86 60.5 146.5 t146.5 60.5t146 -60.5t60 -146.5t-60 -146.5t-146 -60.5t-146.5 60.5t-60.5 146.5z" />
<glyph unicode="&#x202f;" horiz-adv-x="404" />
<glyph unicode="&#x2039;" horiz-adv-x="890" d="M61 481l488 432q43 39 94 39q59 0 102 -44t43 -103q0 -61 -49 -105l-245 -219l245 -217q49 -43 49 -104q0 -59 -43 -104.5t-102 -45.5q-51 0 -94 39z" />
<glyph unicode="&#x203a;" horiz-adv-x="890" d="M102 158q0 61 50 104l245 219l-245 217q-49 43 -50 105q0 59 43 104t103 45q51 0 94 -39l487 -432l-487 -432q-43 -39 -94 -39q-59 0 -102.5 44t-43.5 104z" />
<glyph unicode="&#x205f;" horiz-adv-x="505" />
<glyph unicode="&#x20ac;" horiz-adv-x="1400" d="M82 530q0 61 41 97.5t102 36.5h29v122h-29q-61 0 -102 37t-41 97q0 61 41 97t102 36h56q90 436 514 436q209 0 407 -94q84 -41 84 -127q0 -59 -40 -104.5t-99 -45.5q-20 0 -129 45q-94 39 -223 39q-172 0 -222 -149h230q61 0 102 -36t41 -97q0 -59 -41 -96.5t-102 -37.5 h-262v-122h262q61 0 102 -36t41 -98q0 -59 -41 -96t-102 -37h-215q66 -150 246 -149q141 0 251 63q37 20 72 21q57 0 99 -40t42 -97q0 -141 -233 -207q-94 -27 -231 -27q-236 0 -373 127q-125 113 -172 309h-64q-61 0 -102 37t-41 96z" />
<glyph unicode="&#x2122;" horiz-adv-x="1773" d="M61 1337q0 59 37 96t97 37h524q96 0 127 -90q20 111 117 111q84 0 127 -88l186 -377l188 377q45 88 127 88q57 0 92 -49q29 -43 29 -105v-526q0 -59 -37 -96t-96 -37t-96 37t-37 96v98l-53 -155q-31 -90 -117 -90q-37 0 -69.5 26.5t-45.5 63.5l-53 155v-98q0 -59 -37 -96 t-96 -37t-96 37t-37 96v473q-33 -80 -123 -80h-129v-393q0 -59 -37 -96t-96 -37t-96 37t-37 96v393h-129q-57 0 -95.5 38t-38.5 95z" />
<glyph unicode="&#xe000;" horiz-adv-x="1024" d="M0 0v1024h1024v-1024h-1024z" />
<glyph unicode="&#xfb01;" horiz-adv-x="1335" d="M10 848q0 61 41 97t103 36h86v266q0 152 133 234q109 66 270 65q174 0 320 -49q51 -18 73.5 -54t22.5 -77q0 -59 -38 -101t-97 -42q-16 0 -97 24q-109 31 -178 31q-123 0 -123 -64v-233h82q61 0 102.5 -36t41.5 -97t-41 -97t-103 -36h-82v-609q0 -63 -40 -103t-103 -40 t-103 40t-40 103v609h-86q-61 0 -102.5 35.5t-41.5 97.5zM905 111v766q0 63 40 103t104 40q63 0 103 -40t40 -103v-766q0 -63 -40 -103.5t-103 -40.5t-103.5 40t-40.5 104z" />
<glyph unicode="&#xfb02;" horiz-adv-x="1353" d="M10 848q0 61 41 97t103 36h86v285q0 152 122 223q100 59 285 59q217 0 461 -71q61 -18 102 -33v-1333q0 -63 -40 -103.5t-103 -40.5t-103 40t-40 104v1136q-221 37 -273 37q-125 0 -125 -57v-246h82q61 0 102.5 -36t41.5 -97t-41 -97t-103 -36h-82v-609q0 -63 -40 -103 t-103 -40t-103 40t-40 103v609h-86q-61 0 -102.5 35.5t-41.5 97.5z" />
</font>
</defs>
</svg>
