<?xml version="1.0" standalone="no"?>
<!DOCTYPE svg PUBLIC "-//W3C//DTD SVG 1.1//EN" "http://www.w3.org/Graphics/SVG/1.1/DTD/svg11.dtd" >
<svg xmlns="http://www.w3.org/2000/svg">
<metadata>
This is a custom SVG webfont generated by Font Squirrel.
Copyright   : Copyright c 2010 by Typemade All rights reserved
Designer    : Santiago Orozco
Foundry     : Typemade
</metadata>
<defs>
<font id="webfontmbN6K4hw" horiz-adv-x="614" >
<font-face units-per-em="2048" ascent="1536" descent="-512" />
<missing-glyph horiz-adv-x="500" />
<glyph unicode=" " />
<glyph unicode="!" horiz-adv-x="411" d="M23 111q6 39 36.5 62.5t63.5 23.5t54.5 -23.5t17.5 -62.5t-35 -63.5t-62 -24.5q-35 0 -56 24.5t-19 63.5zM78 340l168 1196h127l-168 -1196h-127z" />
<glyph unicode="&#x22;" horiz-adv-x="659" d="M92 967l72 508h129l-40 -254l-40 -254h-121zM365 967l71 508h129l-40 -254l-40 -254h-120z" />
<glyph unicode="#" horiz-adv-x="1169" d="M18 408l15.5 62.5t15.5 61.5h205l32 125l31 125h-200q8 31 15 62l15 63h203l56 205l53 205h129l-53 -205l-56 -205h248l55 205l54 205h129l-54 -205l-55 -205h229q-8 -33 -14 -63.5t-14 -61.5h-234l-31 -125l-32 -125h229q-8 -31 -15 -62.5t-18 -61.5h-229l-106 -408 h-129l106 408h-248l-106 -408h-129l106 408h-203zM383 532h248l32 125l31 125h-248l-31 -125z" />
<glyph unicode="$" horiz-adv-x="1161" d="M-16 172l30 227h121l-26 -182q41 -39 96 -67.5t133 -38.5l86 606q-57 18 -109.5 42.5t-90.5 62.5t-57.5 94.5t-8.5 142.5q6 61 30.5 122.5t70.5 115t111.5 90t155.5 49.5l17 129h129l-19 -125q66 -6 139.5 -28.5t137.5 -82.5l-29 -211h-123l23 150q-29 18 -70 31.5 t-94 17.5l-72 -512q66 -23 130.5 -50.5t111.5 -73.5t70.5 -117.5t9.5 -180.5q-10 -86 -50 -155.5t-99.5 -121t-133.5 -83t-153 -37.5l-19 -125h-129l19 129q-131 14 -218 69.5t-120 112.5zM287 1063q-6 -47 3 -81t30.5 -58.5t53.5 -43t68 -32.5l66 459q-98 -18 -154.5 -88 t-66.5 -156zM467 111q53 8 102 29.5t89 55t67 81t35 104.5q10 70 -4.5 118t-45 81.5t-73.5 56t-90 39.5z" />
<glyph unicode="%" horiz-adv-x="1486" d="M233 797q8 51 35 96t66 79t87 53t99 19t94 -19t73 -53t43 -79t7 -96q-8 -53 -34.5 -98.5t-65.5 -79t-87 -53t-99 -19.5t-94.5 19.5t-73 53t-43 79t-7.5 98.5zM303 0l378 512l378 512h141l-378 -512l-378 -512h-141zM362 797q-8 -53 23 -89t84 -36t92 35.5t47 89.5 q6 51 -23.5 87t-82.5 36t-92.5 -36t-47.5 -87zM776 229q8 51 35 96.5t65.5 78t87 52t99.5 19.5t94 -19.5t73 -52t43 -77.5t7 -97q-8 -53 -34.5 -98t-65.5 -79t-87.5 -53t-99.5 -19t-94 19t-72.5 53t-43 79t-7.5 98zM905 227q-8 -53 22.5 -88t84.5 -35q53 0 92 35t47 88 q6 53 -23.5 88t-83.5 35q-53 0 -92 -35t-47 -88z" />
<glyph unicode="&#x26;" horiz-adv-x="1433" d="M160 385q10 74 45 139.5t87 117.5t117.5 88t137.5 48l-113 238q-29 61 -34 126.5t14.5 128t64.5 119t119 97.5q63 35 123.5 42t116 -4.5t103.5 -34t83 -46.5l-66 -101q-27 16 -60.5 34t-72.5 27t-78.5 6t-78.5 -26q-106 -61 -130 -153t19 -182l283 -598q20 29 22 59 l37 258h330l-17 -125h-202l-15 -111q-8 -53 -18 -129.5t-45 -142.5l110 -233l-108 -66l-84 174q-66 -72 -154 -111.5t-186 -39.5q-84 0 -153.5 31.5t-118 86t-69.5 127t-9 156.5zM289 385q-8 -59 5 -109.5t45 -88t80 -59.5t109 -22q84 0 155 41t112 107l-191 405 q-61 -2 -115.5 -22.5t-96.5 -56t-68.5 -86t-34.5 -109.5z" />
<glyph unicode="'" horiz-adv-x="323" d="M63 967l72 508h133l-40 -254l-40 -254h-125z" />
<glyph unicode="(" horiz-adv-x="849" d="M242.5 303q-9.5 139 13.5 293q20 154 68.5 293t113 258t138 216t147.5 165l49 -24l51 -23q-68 -68 -137.5 -160t-129.5 -204.5t-105 -244t-66 -276.5q-20 -145 -12 -276.5t36.5 -244t72.5 -204.5t93 -160l-56 -23l-56 -24q-55 68 -102.5 165t-78 216t-40 258z" />
<glyph unicode=")" horiz-adv-x="819" d="M49 -295q68 68 137.5 160t130 204.5t105.5 243.5t65 277q20 145 12.5 276t-36.5 244t-73 205t-93 160l56 24l57 25q55 -68 102 -165t78 -216t40 -258.5t-12 -292.5q-23 -154 -70.5 -293t-112 -258t-138.5 -216t-147 -165l-51 22z" />
<glyph unicode="*" horiz-adv-x="686" d="M47 1092l83 44l85 44l-71 47l-70 47l37 52l36 54l74 -47l74 -47l27 189h131l-15.5 -94.5l-15.5 -94.5l88 46l88 46q10 -29 22.5 -54.5t22.5 -51.5l-86 -47q-43 -25 -88 -47l74 -45l71 -46l-41 -57l-41 -57l-71 47l-72 47q-6 -45 -13 -89t-16 -89h-122l24 178l-83 -44 l-85 -44q-20 54 -47 113z" />
<glyph unicode="+" horiz-adv-x="1112" d="M166 410l18 125h303l43 307h129l-43 -307h306l-19 -125h-303l-45 -306h-129l45 306h-305z" />
<glyph unicode="," horiz-adv-x="409" d="M-10 -246l106 211l109 211h135l-118 -211l-118 -211h-114z" />
<glyph unicode="-" d="M98 324l17 125h377l-17 -125h-377z" />
<glyph unicode="." horiz-adv-x="333" d="M86 86q6 39 36 63.5t64 24.5q33 0 55.5 -24.5t16.5 -63.5q-4 -39 -33.5 -62.5t-62.5 -23.5q-35 0 -57.5 23.5t-18.5 62.5z" />
<glyph unicode="/" horiz-adv-x="743" d="M-74 -39l393 773l394 773h129l-395 -773l-394 -773h-127z" />
<glyph unicode="0" horiz-adv-x="1261" d="M76 670q20 139 76.5 263t140.5 216t193.5 145.5t236.5 53.5t220 -55.5t151.5 -149.5t78 -218t-1.5 -263q-23 -152 -86 -277t-153 -214t-196.5 -138t-213.5 -49q-106 0 -197.5 51t-155 141t-90 216t-3.5 278zM205 670q-18 -121 1 -223.5t66 -177t116 -117.5t153 -43 t165.5 40.5t151.5 114.5t119 176.5t65 223.5q14 96 3 195t-51 180t-110.5 132.5t-176.5 51.5t-193.5 -49.5t-151 -129t-103.5 -179t-54 -195.5z" />
<glyph unicode="1" horiz-adv-x="569" d="M-18 0l16 121h162l151 1085h-166l17 125h295l-168 -1210h162l-17 -121h-452z" />
<glyph unicode="2" horiz-adv-x="1048" d="M12 0l284 248q138 121 246.5 234.5t180.5 220t86 202.5q12 88 -6.5 148.5t-54 98.5t-81.5 54.5t-89 16.5q-84 0 -142.5 -30t-95.5 -73t-56.5 -92t-25.5 -88q-18 -135 51 -219l-90 -78q-27 23 -46 57.5t-30.5 74.5t-15.5 83t2 82q12 82 49 155.5t96.5 130t141.5 89.5 t180 33q90 0 159.5 -33t114.5 -90.5t63.5 -133t6.5 -161.5q-14 -106 -71.5 -209t-140.5 -203t-184 -197l-204 -196h446l29 203h123l-47 -328h-879z" />
<glyph unicode="3" horiz-adv-x="1054" d="M66 125l106 90q35 -47 88 -76.5t123 -29.5q63 0 123.5 24.5t109 67.5t81 99t42.5 120q8 63 -8 119.5t-53 97.5t-91.5 65.5t-117.5 24.5q-70 0 -135 -39l401 516h-327l-15 -108h-121l33 235h668l-398 -495q72 -16 131.5 -53.5t98.5 -91.5t56.5 -122.5t6.5 -148.5 q-12 -90 -59 -169t-114.5 -138.5t-152.5 -94t-175 -34.5q-96 0 -173 37.5t-128 103.5z" />
<glyph unicode="4" horiz-adv-x="1069" d="M33 375l887 973l-121 -848h198l-16 -125h-199l-37 -254h170l-16 -121h-455l19 121h153l37 254h-620zM309 500h361l67 471z" />
<glyph unicode="5" horiz-adv-x="1112" d="M139 104l107 89q74 -84 194 -84q63 0 124 24.5t110 67.5t80.5 99t42.5 120q8 63 -8.5 118.5t-53.5 96.5t-91 65.5t-118 24.5q-72 0 -134 -23.5t-105 -72.5l100 702h588l-33 -235h-123l15 110h-336l-52 -372q49 16 99 16q90 0 164.5 -34t127 -92t77 -136t12.5 -168 t-59.5 -169t-116 -138.5t-153.5 -94t-173 -34.5t-161 31.5t-124 88.5z" />
<glyph unicode="6" horiz-adv-x="1064" d="M66 401q20 147 101 275.5t194.5 239t247.5 206.5l261 181l33 -51l33 -50q-193 -117 -315.5 -220t-192.5 -183q29 23 62.5 37t72.5 14q90 0 166 -34t128 -92t75.5 -137t11.5 -169t-59 -169t-115 -137.5t-153 -93t-175 -34.5q-88 0 -161.5 32.5t-125 89t-75.5 133 t-14 162.5zM199 418q-10 -63 6 -119.5t51 -98.5t87 -66.5t116 -24.5q63 0 123.5 24.5t109.5 66.5t81 98t42 120q8 63 -8 119.5t-53 97.5t-90.5 65.5t-116.5 24.5t-122.5 -24.5t-107 -65.5t-79 -97.5t-39.5 -119.5z" />
<glyph unicode="7" horiz-adv-x="960" d="M29 0l712 1204h-516l-14 -108h-123l33 235h837l-784 -1331h-145z" />
<glyph unicode="8" horiz-adv-x="1044" d="M47 420q18 127 99 227.5t194 151.5q-49 39 -72.5 99t-13.5 134q8 66 41 123t82 100t109.5 68t125.5 25q66 0 120 -26t91 -69t53.5 -100t8.5 -123q-10 -72 -51 -132t-101 -99q100 -51 154.5 -151.5t36.5 -227.5q-12 -90 -59.5 -169t-115 -138.5t-152.5 -94t-173 -34.5 q-90 0 -165 34.5t-126 94t-74.5 138.5t-11.5 169zM180 420q-8 -63 7.5 -119.5t50 -99.5t86 -67.5t114.5 -24.5t125 24.5t110 67.5t80.5 99t41.5 120q8 61 -7.5 116.5t-51.5 96.5t-88 65.5t-116 26.5q-66 0 -126 -24.5t-107 -65.5t-79 -96.5t-40 -118.5zM383 1028 q-10 -76 37 -126t125 -50q80 0 141.5 50t71.5 126q6 39 -3.5 75t-31 62.5t-54 42t-71.5 15.5t-76 -15.5t-65.5 -42t-48 -62.5t-25.5 -75z" />
<glyph unicode="9" horiz-adv-x="1075" d="M100 866q12 88 59.5 168t115 138.5t152.5 93t175 34.5t165 -34.5t126 -93t73.5 -138.5t10.5 -168q-20 -143 -102 -269t-197 -235.5t-248 -204.5l-256 -175l-34 50l-34 50q193 117 316 219t194 184q-57 -51 -137 -51q-90 0 -164.5 34t-127 92t-76 137t-11.5 169zM229 866 q-10 -63 7.5 -119.5t54.5 -97.5t90 -65.5t117 -24.5q63 0 122.5 24.5t106.5 65.5t79 97.5t40 119.5t-7.5 119.5t-51 98.5t-88 67t-115.5 25t-124 -25t-109 -67t-81 -98.5t-41 -119.5z" />
<glyph unicode=":" horiz-adv-x="358" d="M51 86q4 39 34 63.5t65 24.5q33 0 55 -24.5t18 -63.5q-6 -39 -35.5 -62.5t-62.5 -23.5t-56.5 23.5t-17.5 62.5zM123 598q4 39 33.5 63.5t64.5 24.5q33 0 55.5 -24.5t18.5 -63.5t-35 -62.5t-63 -23.5q-33 0 -56.5 23.5t-17.5 62.5z" />
<glyph unicode=";" horiz-adv-x="411" d="M-74 -246l107 211l108 211h133l-116 -211l-117 -211h-115zM197 598q6 39 36.5 63.5t63.5 24.5t55.5 -24.5t18.5 -63.5q-6 -39 -36 -62.5t-63 -23.5t-56 23.5t-19 62.5z" />
<glyph unicode="&#x3c;" horiz-adv-x="1392" d="M238 487l482 258l484 259l-24 -173l-323 -172l-322 -172l272 -172l276 -172l-24 -172l-411 258z" />
<glyph unicode="=" horiz-adv-x="1449" d="M166 252l18 125h1037l-19 -125h-1036zM221 649l19 125h1036l-19 -125h-1036z" />
<glyph unicode="&#x3e;" horiz-adv-x="1331" d="M164 -29l22 172l324 172l326 172l-277 172l-274 172l24 173l411 -259l413 -258l-485 -258z" />
<glyph unicode="?" horiz-adv-x="925" d="M137 1198q25 49 62 102.5t91 97.5t126.5 72.5t165.5 28.5q84 0 153.5 -31.5t115.5 -86t67.5 -127t9.5 -154.5q-16 -113 -82 -198t-170 -152q-35 -25 -72 -45.5t-67.5 -47t-53 -65.5t-30.5 -96l-23 -160h-129l29 199q8 63 35.5 104t67.5 71.5t88 58.5t102 69 q78 55 120.5 120.5t53.5 141.5q8 59 -5.5 109.5t-44 87t-77.5 57t-105 20.5q-117 0 -194.5 -56t-124.5 -161l-53 21zM246 102q4 37 34.5 62.5t63.5 25.5q31 0 54.5 -25.5t17.5 -62.5q-4 -39 -35 -62.5t-62 -23.5q-33 0 -56 23.5t-17 62.5z" />
<glyph unicode="@" horiz-adv-x="2027" d="M152 387q25 176 112.5 329.5t219.5 268.5t296 181.5t340 66.5t320.5 -66.5t243 -181.5t142.5 -269.5t19 -330.5q-23 -111 -68.5 -185.5t-104 -118.5t-121 -62.5t-117.5 -18.5h-199l8 61l4 34q2 17 6 34q-12 -20 -39.5 -46t-68.5 -47.5t-93.5 -36.5t-113.5 -15 q-86 0 -155.5 31.5t-117 86t-69 127t-8.5 154.5q12 82 53 154.5t104.5 127t141.5 86t164 31.5q55 0 103 -16t83 -38.5t57.5 -49.5t28.5 -47q4 33 12 67l17 70h104l-92 -643h92q90 0 163 58.5t97 201.5q20 150 -16.5 282t-120.5 230t-207 155.5t-270 57.5q-150 0 -289 -57.5 t-250.5 -155.5t-187.5 -230t-96 -282t17.5 -281t121.5 -229t208 -154.5t273 -56.5q123 0 237.5 37t215.5 102l32 -47l33 -45q-113 -84 -257 -128t-279 -44q-176 0 -321.5 66.5t-245 181.5t-143.5 269.5t-19 330.5zM717 385q-8 -59 5 -109.5t45 -87t80 -58t109 -21.5 q59 0 113.5 21.5t96.5 58t71 87t37 109.5q8 57 -5.5 108.5t-46 88t-80.5 58.5t-108 22q-59 0 -113.5 -22t-96.5 -58.5t-70.5 -88t-36.5 -108.5z" />
<glyph unicode="A" horiz-adv-x="1638" d="M72 0l16 121h164l387 689l389 689l196 -689l195 -689h164l-16 -121h-426l16 121h133l-66 235l-67 236h-514l-131 -236l-133 -235h135l-16 -121h-426zM715 713h407l-123 440l-10 64l-7 -15q-5 -10 -9 -20q-8 -12 -15 -29l-42 -77l-61 -111l-71 -128z" />
<glyph unicode="B" horiz-adv-x="1093" d="M72 0l16 121h109l165 1190h-106l16 123h459q98 0 176 -20.5t130.5 -63.5t74.5 -112q14 -42 14 -93q0 -33 -6 -70q-16 -127 -92 -223t-207 -131q57 -12 108.5 -41t86.5 -74t51 -104q10 -37 10 -79q0 -26 -4 -54q-12 -92 -60 -161t-118 -115t-155 -69.5t-173 -23.5h-495z M324 121h249q70 0 133.5 16.5t113.5 49t84 82.5t44 116q3 21 3 41q0 47 -17 83q-25 52 -72 86t-111.5 49t-134.5 15h-217zM418 782h244q133 0 222 77t105 200q4 28 4 53q0 35 -8 63q-14 48 -49 77.5t-87 44t-118 14.5h-239z" />
<glyph unicode="C" horiz-adv-x="1249" d="M174 715q20 152 97 286t189.5 233t254 157.5t293.5 58.5q104 0 194 -26.5t166 -75.5l-33 -230h-123l23 152q-111 57 -244 57q-125 0 -241.5 -48t-211 -132t-157 -195.5t-80.5 -236.5q-7 -47 -7 -91q0 -77 20 -147q32 -111 102.5 -193.5t173 -131t227.5 -48.5 q84 0 163 21.5t153 62.5l57 -102q-90 -47 -186.5 -74.5t-200.5 -27.5q-152 0 -277 57t-211 156.5t-125 232.5q-25 84 -24 176q0 53 8 109z" />
<glyph unicode="D" horiz-adv-x="1294" d="M72 0l16 123h113l166 1188h-111l16 123h430q147 0 271.5 -50.5t209.5 -144.5t124 -226q25 -84 24 -181q0 -56 -8 -117q-18 -121 -77.5 -248t-168 -230.5t-268.5 -170t-377 -66.5h-360zM328 123h159q145 0 268.5 47t215.5 127t149.5 188.5t75.5 231.5q7 50 7 96 q0 80 -20 150q-32 111 -102.5 187.5t-176 118.5t-230.5 42h-178z" />
<glyph unicode="E" horiz-adv-x="1169" d="M72 0l16 121h131l166 1190h-129l16 123h998l-45 -316h-123l28 193h-616l-74 -529h658l-19 -120h-657l-76 -541h645l27 194h123l-43 -315h-1026z" />
<glyph unicode="F" horiz-adv-x="1140" d="M72 0l16 121h131l166 1190h-129l16 123h998l-45 -316h-123l28 193h-616l-74 -529h658l-19 -120h-657l-76 -541h197l-17 -121h-454z" />
<glyph unicode="G" horiz-adv-x="1247" d="M68 711q20 152 97 285.5t190.5 233t255 158t292.5 58.5q104 0 193.5 -26.5t167.5 -76.5l-86 -104q-125 84 -291 84q-125 0 -242 -48t-211 -132t-157.5 -195.5t-81.5 -236.5q-6 -43 -6 -85q0 -80 21 -153q32 -111 102.5 -193.5t173 -131t225.5 -48.5q133 0 256 56l47 331 h-254l16 123h381l-74 -528q-88 -47 -184 -74.5t-201 -27.5q-152 0 -276.5 57t-210.5 156.5t-125 232.5q-25 87 -25 182q0 51 7 103z" />
<glyph unicode="H" horiz-adv-x="1546" d="M72 0l16 121h160l168 1190h-160l16 123h455l-18 -123h-166l-74 -529h827l74 529h-166l19 123h452l-16 -123h-162l-166 -1190h160l-16 -121h-453l16 121h164l76 541h-827l-74 -541h166l-17 -121h-454z" />
<glyph unicode="I" horiz-adv-x="598" d="M72 0l16 121h160l168 1190h-160l16 123h455l-18 -123h-166l-166 -1190h166l-17 -121h-454z" />
<glyph unicode="J" horiz-adv-x="602" d="M-49 -293l14 121q72 4 136.5 29.5t114.5 71.5t84 111.5t46 149.5l160 1121h-332l16 123h459l-176 -1250q-16 -115 -63.5 -202.5t-118 -147t-157.5 -92.5t-183 -35z" />
<glyph unicode="K" horiz-adv-x="1404" d="M72 0l16 121h158l168 1190h-158l16 123h426l-18 -123h-139l-68 -480q-4 -16 -7 -31.5t-7 -31.5l45 45l592 498h-92l16 123h426l-16 -123h-175l-540 -455l237 -367l240 -368h158l-17 -121h-426l17 121h116l-212 326l-210 327l-174 -143l-35 -255l-36 -255h170l-17 -121 h-454z" />
<glyph unicode="L" horiz-adv-x="1165" d="M72 0l16 121h127l168 1190h-127l16 123h426l-18 -123h-170l-166 -1190h645l27 194h121l-43 -315h-1022z" />
<glyph unicode="M" horiz-adv-x="1988" d="M72 0l16 121h172l168 1190h-172l16 123h222l118 -190l147 -231l156 -249l152 -240l413 455l414 455h222l-17 -123h-172l-168 -1190h174l-16 -121h-453l17 121h151l133 948l7 38q4 26 8 36l-30 -35l-32 -37l-147 -167l-175 -192l-185 -201l-175 -192l-163 261l-117 189 l-82 132l-56 89l-37 61l-30 47l-25 45q-2 -18 -3 -35.5t-3 -38.5l-133 -948h156l-17 -121h-454z" />
<glyph unicode="N" horiz-adv-x="1740" d="M80 0l16 121h172l168 1190h-172l17 123h229l870 -1164l31 -53l4 66l144 1028h-150l16 123h453l-16 -123h-174l-193 -1377l-922 1211l-30 51l-4 -63l-142 -1012h154l-16 -121h-455z" />
<glyph unicode="O" horiz-adv-x="1609" d="M174 715q20 152 96 286t189.5 233t255 157.5t293.5 58.5t276.5 -58.5t210.5 -157.5t126 -234q26 -89 26 -185q0 -49 -7 -100q-23 -152 -99.5 -285t-190 -232.5t-255 -156.5t-292.5 -57q-152 0 -277 57t-211 156.5t-125 232.5q-25 84 -24 176q0 53 8 109zM301 715 q-7 -47 -7 -91q0 -77 20 -147q32 -111 102.5 -193.5t174 -131t228.5 -48.5t242 48.5t211 131.5t158.5 193.5t82.5 237.5q5 42 6 82q0 80 -22 154q-33 112 -103.5 196t-174 132t-228.5 48t-241.5 -48t-211 -132t-157 -195.5t-80.5 -236.5z" />
<glyph unicode="P" horiz-adv-x="1036" d="M72 0l16 121h109l165 1190h-106l16 123h430q68 0 145 -21.5t140.5 -68t101.5 -117.5q27 -52 27 -120q0 -26 -4 -54q-27 -180 -152.5 -288t-336.5 -108h-226l-73 -536h219l-17 -121h-454zM416 780h196q98 0 167 25.5t112 65.5t64.5 88.5t27.5 93.5q3 16 3 31q0 35 -13 67 q-18 47 -58.5 82t-98.5 56.5t-128 21.5h-196z" />
<glyph unicode="Q" horiz-adv-x="1654" d="M174 715q20 152 97 286t189.5 233t254 157.5t293.5 58.5t277.5 -58.5t211.5 -157.5t125 -234q25 -88 26 -183q0 -50 -8 -102q-29 -188 -138 -344t-269 -250h369l-17 -121h-629q-82 -16 -153 -16q-152 0 -277 57t-211 156.5t-125 232.5q-25 84 -24 176q0 53 8 109z M301 715q-7 -47 -7 -91q0 -77 20 -147q32 -111 102.5 -193.5t173 -131t227.5 -48.5t243 48.5t212 131.5t158.5 193.5t82.5 237.5q5 42 6 82q0 80 -22 154q-33 112 -103.5 196t-174 132t-228.5 48t-241.5 -48t-211 -132t-157 -195.5t-80.5 -236.5z" />
<glyph unicode="R" horiz-adv-x="1175" d="M72 0l16 121h109l165 1190h-106l16 123h430q68 0 145 -21.5t140.5 -68t101.5 -117.5q27 -52 27 -120q0 -26 -4 -54q-23 -152 -114 -252.5t-244 -132.5l180 -547h186l-16 -121h-266l-220 659q-23 -2 -46 -2h-46h-129l-73 -536h219l-17 -121h-454zM416 780h196 q98 0 167 25.5t112 65.5t64.5 88.5t27.5 93.5q3 16 3 31q0 35 -13 67q-18 47 -58.5 82t-98.5 56.5t-128 21.5h-196z" />
<glyph unicode="S" horiz-adv-x="978" d="M84 172l33 227h121l-27 -182q49 -47 123 -80t176 -33q61 0 119.5 18.5t106.5 53.5t82 87t44 118q4 31 5 58q0 47 -14 82q-22 54 -66 89t-102 56.5t-120.5 41t-122 42t-103.5 60.5t-67 97q-15 41 -15 97q0 26 3 55q8 68 38 136.5t84 122.5t133 89t187 35q35 0 77 -4 t85 -15.5t86 -34t82 -59.5l-28 -211h-123l22 150q-37 23 -92 37t-127 14q-66 0 -117 -21.5t-89 -56.5t-60.5 -81t-28.5 -97q-3 -20 -3 -38q0 -43 17 -73q25 -43 70 -70.5t105 -46.5l120 -40q61 -20 120 -49t102 -75t63 -116q12 -41 12 -93q0 -37 -6 -79q-12 -92 -56 -166 t-109.5 -126t-147.5 -79.5t-170 -27.5q-80 0 -147.5 16t-122 44t-93.5 60.5t-59 67.5z" />
<glyph unicode="T" horiz-adv-x="1275" d="M227 1118l45 316h1133l-45 -316h-123l29 193h-379l-168 -1190h155l-16 -121h-455l17 121h172l168 1190h-383l-29 -193h-121z" />
<glyph unicode="U" horiz-adv-x="1458" d="M258 1311l16 123h455l-18 -123h-168l-119 -842q-5 -35 -5 -67q0 -48 11 -89q18 -68 61.5 -113.5t108 -70.5t145.5 -25q80 0 152 25t128 71t94 113.5t50 155.5l119 842h-168l17 123h452l-16 -123h-158l-121 -848q-16 -117 -66 -207t-126 -150.5t-171 -91t-202 -30.5 q-109 0 -196 30.5t-145 91t-84 150.5q-16 55 -15 120q0 42 6 87l121 848h-158z" />
<glyph unicode="V" horiz-adv-x="1679" d="M264 1311l17 123h454l-18 -123h-150l147 -515l146 -515l10 -64l27 64l291 514l289 516h-131l18 123h453l-17 -123h-192l-389 -688l-388 -689l-393 1377h-174z" />
<glyph unicode="W" horiz-adv-x="2439" d="M264 1311l17 123h454l-18 -123h-150l146 -515l147 -515l10 -64q86 197 203 388.5t221 381.5l-46 161l-46 163h-180l16 123h455l-16 -123h-146l145 -515l148 -515l8 -64l29 64l290 514l290 516h-136l17 123h454l-18 -123h-188l-388 -688l-387 -689l-243 854l-13 64 q-49 -115 -111 -230l-130 -232l-136 -230l-131 -226l-393 1377h-174z" />
<glyph unicode="X" horiz-adv-x="1431" d="M72 0l16 121h162l483 612l-295 578h-182l16 123h455l-18 -123h-115l112 -217l109 -215l19 -48l28 48l342 432h-114l16 123h455l-19 -123h-182l-233 -295l-232 -295l309 -600h172l-16 -121h-455l17 121h122l-215 420q-10 20 -17 41.5t-17 42.5l-31 -50l-179 -227 l-177 -227h135l-17 -121h-454z" />
<glyph unicode="Y" horiz-adv-x="1572" d="M256 1311l16 123h455l-18 -123h-115l135 -294l133 -294l15 -59h2l32 59l432 588h-112l16 123h455l-19 -123h-184l-279 -382l-280 -382l-59 -426h153l-16 -121h-453l17 121h143l59 428l-174 380l-172 382h-182z" />
<glyph unicode="Z" horiz-adv-x="1288" d="M72 0l16 123l1094 1188h-893l26 194h129l-10 -71h924l-17 -123l-1095 -1188h864l47 332h123l-63 -455h-1145z" />
<glyph unicode="[" horiz-adv-x="692" d="M41 -305l256 1833h375l-17 -125h-245l-224 -1583h248l-18 -125h-375z" />
<glyph unicode="\" horiz-adv-x="747" d="M119 1507h143l175 -773l175 -773h-143l-175 773z" />
<glyph unicode="]" horiz-adv-x="700" d="M10 -305l17 125h245l224 1583h-248l18 125h375l-256 -1833h-375z" />
<glyph unicode="^" horiz-adv-x="962" d="M203 981l148 185l149 186l97 -186l97 -185h-94l-61 98l-64 101l-88 -101l-90 -98h-94z" />
<glyph unicode="_" horiz-adv-x="1228" d="M195 0l16 125h819l-16 -125h-819z" />
<glyph unicode="`" horiz-adv-x="409" d="M-47 1253h127l59 -136l60 -136h-95q-41 68 -76.5 136z" />
<glyph unicode="a" horiz-adv-x="1110" d="M127 383q12 82 53 154.5t104.5 128t142.5 88t165 32.5q57 0 104 -16t83 -40.5t57.5 -51.5t25.5 -47q4 33 13.5 67.5t13.5 69.5h104l-90 -647h154l-17 -121h-266l8 61q4 16 5 34t6 34q-12 -20 -40 -45t-68 -47.5t-92 -37.5t-114 -15q-86 0 -155.5 31.5t-117.5 86 t-70 126.5q-14 46 -13 97q0 28 4 58zM256 385q-3 -23 -3 -44q0 -35 8 -66q13 -50 46 -86.5t81 -58t108 -21.5q59 0 113.5 21.5t97.5 58t70.5 87t35.5 109.5q3 22 3 43q0 34 -8 66q-13 51 -46 87.5t-81 58.5t-108 22q-61 0 -115.5 -22t-96.5 -58.5t-69.5 -88t-35.5 -108.5z " />
<glyph unicode="b" horiz-adv-x="1110" d="M74 0l16 121h154l182 1292h-139l16 123h266l-114 -819q-6 -23 -12.5 -42.5t-14.5 -39.5q12 20 42 47t72 50.5t94 38.5t107 15q86 0 156 -31.5t117 -87t68 -127.5q14 -46 14 -97q0 -29 -4 -58q-12 -82 -53.5 -154.5t-104 -128t-140 -87t-163.5 -31.5q-61 0 -110.5 15 t-84.5 37.5t-55.5 47.5t-26.5 45l-6 -68l-10 -61h-266zM408 385q-3 -22 -3 -42q0 -36 9 -68q14 -50 46 -86.5t80 -58t109 -21.5q59 0 113.5 21.5t96.5 58t69.5 87t36.5 109.5q3 22 3 43q0 34 -9 66q-13 51 -44.5 87.5t-80 58.5t-109.5 22q-59 0 -113.5 -22t-96.5 -58.5 t-70.5 -88t-36.5 -108.5z" />
<glyph unicode="c" horiz-adv-x="806" d="M127 385q12 82 54 155.5t104.5 128t141.5 86t163 31.5q74 0 136 -23.5t110 -64.5l-33 -221h-115l21 146q-59 39 -138 39q-59 0 -113.5 -22t-96.5 -58.5t-70.5 -88t-36.5 -108.5q-3 -22 -3 -42q0 -36 9 -68q14 -50 46 -86.5t80 -58t108 -21.5q53 0 99 15t85 44l67 -96 q-59 -41 -126.5 -64.5t-141.5 -23.5q-84 0 -153.5 31.5t-117.5 86t-70 126.5q-14 46 -13 97q0 29 4 60z" />
<glyph unicode="d" horiz-adv-x="1110" d="M127 385q12 82 53 154.5t104.5 128t142.5 87t165 31.5q55 0 102 -15t83 -38.5t57.5 -50.5t27.5 -47q2 29 2 57.5t2 59.5l92 661h-139l17 123h266l-199 -1415h154l-17 -121h-266l8 61q4 16 5 34t6 34q-12 -20 -40 -45t-68 -47.5t-92 -37.5t-114 -15q-86 0 -155.5 31.5 t-117.5 87t-70 127.5q-14 46 -13 97q0 28 4 58zM256 385q-3 -23 -3 -44q0 -35 8 -66q13 -50 46 -86.5t81 -58t108 -21.5q59 0 113.5 21.5t97.5 58t70.5 87t35.5 109.5q3 22 3 43q0 34 -8 66q-13 51 -46 87.5t-81 58.5t-108 22q-61 0 -115.5 -22t-96.5 -58.5t-69.5 -88 t-35.5 -108.5z" />
<glyph unicode="e" horiz-adv-x="911" d="M127 385q12 82 54 155.5t104.5 128t141.5 86t163 31.5q127 0 210 -89t101 -226l-314 -114l-315 -113q27 -61 84.5 -98t137.5 -37q55 0 105 20.5t89 54.5l35 -46l33 -46q-59 -51 -130 -79.5t-149 -28.5q-84 0 -153.5 31.5t-117.5 86t-70 126.5q-14 46 -13 97q0 29 4 60z M256 365l246 89l246 89q-25 53 -71 86t-106 33q-63 0 -119.5 -25t-99.5 -66t-68.5 -94t-27.5 -112z" />
<glyph unicode="f" horiz-adv-x="653" d="M72 0l16 121h125l74 522h-125l16 125h123l41 291q16 115 63.5 203t118 148t158.5 92t186 36l-16 -123q-72 -2 -135.5 -27.5t-114.5 -71.5t-85 -111.5t-46 -147.5l-41 -289h248l-16 -125h-250l-72 -522h174l-16 -121h-426z" />
<glyph unicode="g" horiz-adv-x="1112" d="M182 -389l101 102q39 -41 96 -67.5t123 -26.5q57 0 110.5 22.5t96.5 62.5t70.5 94.5t37.5 119.5l21 143q4 16 10 33t10 33q-14 -23 -43 -48.5t-68.5 -46t-90 -33.5t-107.5 -13q-86 0 -155.5 31.5t-118 86t-69.5 125.5q-14 46 -14 96q0 28 5 58q12 82 53 154.5t104.5 128 t142 88t165.5 32.5q57 0 104 -16t83 -40.5t57.5 -51.5t25.5 -47q4 33 13 67.5t13 69.5h261l-19 -123h-153l-105 -741q-12 -92 -54 -168t-103.5 -131.5t-138.5 -86t-159 -30.5q-92 2 -172 37t-133 86zM326 385q-3 -23 -3 -44q0 -35 8 -66q13 -50 46 -86.5t81 -58t107 -21.5 t113.5 21.5t97.5 58t70.5 87t36.5 109.5q3 22 3 43q0 34 -8 66q-13 51 -46 87.5t-81.5 58.5t-107.5 22q-61 0 -115.5 -22t-96.5 -58.5t-69.5 -88t-35.5 -108.5z" />
<glyph unicode="h" horiz-adv-x="1153" d="M72 0l16 121h158l182 1292h-156l19 123h280l-122 -874l-19 -93q57 98 152.5 154.5t212.5 60.5q117 0 176 -63q51 -54 50 -137q0 -14 -1 -29l-62 -434h140l-17 -121h-426l17 121h159l52 385q1 9 1 18q0 48 -29 86q-34 45 -116 49q-57 0 -112.5 -20.5t-100.5 -55 t-75.5 -82.5t-38.5 -106l-39 -274h141l-16 -121h-426z" />
<glyph unicode="i" horiz-adv-x="569" d="M72 0l16 121h152l71 524h-149l16 123h279l-90 -647h147l-16 -121h-426zM348 1053q6 37 36 62.5t65 25.5q31 0 54 -26q20 -22 20 -52q0 -5 -1 -10q-8 -39 -37.5 -62.5t-62.5 -23.5t-56 23q-19 19 -19 47q0 8 1 16z" />
<glyph unicode="j" horiz-adv-x="405" d="M0 -276q59 47 98 114.5t49 159.5l93 647h-134l17 123h262l-109 -772q-16 -123 -68 -215t-130 -152zM279 1053q4 37 34.5 62.5t65.5 25.5q31 0 54 -26q19 -20 19 -48q0 -7 -1 -14q-4 -39 -34 -62.5t-63 -23.5q-35 0 -57 23q-19 20 -19 51q0 6 1 12z" />
<glyph unicode="k" horiz-adv-x="1054" d="M72 0l16 121h154l180 1292h-139l18 123h266l-157 -1126l284 235h-100l16 123h396l-17 -123h-137l-116 -97l-113 -97l95 -164l97 -166h184l-16 -121h-395l16 121h62q-78 123 -148 246l-129 -109l-20 -137h145l-16 -121h-426z" />
<glyph unicode="l" horiz-adv-x="569" d="M72 0l16 121h154l180 1292h-139l18 123h266l-198 -1415h145l-16 -121h-426z" />
<glyph unicode="m" horiz-adv-x="1738" d="M72 0l16 121h158l73 524h-141l17 123h249l-4 -45q-4 -43 -5 -77t-5 -77q57 98 152.5 155.5t212.5 59.5q109 0 168 -56t57 -148q57 94 151.5 148t206.5 56q117 0 177 -63q50 -53 51 -132q0 -16 -2 -34l-60 -434h139l-16 -121h-426l16 121h158l53 385q1 9 1 18q0 48 -28 86 q-34 45 -116 49q-57 0 -112.5 -19t-100.5 -54t-75.5 -83t-39.5 -104l-39 -278h140l-17 -121h-424l17 121h157l52 385q1 9 1 18q0 48 -29 86q-34 45 -116 49q-57 0 -112.5 -20.5t-100.5 -55t-75.5 -82.5t-38.5 -106l-39 -274h141l-16 -121h-426z" />
<glyph unicode="n" horiz-adv-x="1153" d="M72 0l16 121h158l73 524h-141l17 123h249l-4 -45q-4 -43 -5 -77t-5 -77q55 98 153.5 156.5t211.5 58.5q117 0 176 -63q51 -54 50 -137q0 -14 -1 -29l-62 -434h140l-17 -121h-426l17 121h159l52 385q1 9 1 18q0 48 -29 86q-34 45 -116 49q-57 0 -112.5 -20.5t-100.5 -55 t-75.5 -82.5t-38.5 -106l-39 -274h141l-16 -121h-426z" />
<glyph unicode="o" horiz-adv-x="958" d="M127 385q12 82 54 155.5t104.5 128t141.5 86t163 31.5q86 0 155.5 -31.5t117.5 -86t70 -127.5q14 -47 14 -97q0 -29 -5 -59q-12 -84 -53 -156.5t-104.5 -127t-142.5 -86t-165 -31.5q-84 0 -153.5 31.5t-117.5 86t-70 126.5q-14 46 -13 97q0 29 4 60zM256 383 q-3 -21 -3 -41q0 -35 9 -67q14 -50 46 -86.5t79 -58t105 -21.5q57 0 110 21.5t96 58t73 87t38 107.5q3 20 3 39q0 36 -10 70q-15 51 -47 88.5t-80 59.5t-106 22q-57 0 -110 -22t-96.5 -59.5t-71 -89t-35.5 -108.5z" />
<glyph unicode="p" horiz-adv-x="1112" d="M-2 -512l12 121h137l146 1036h-154l21 123h256q-4 -35 -7 -69.5t-8 -69.5q12 20 42 48t73 51.5t95.5 39.5t107.5 16q86 0 155.5 -31.5t116.5 -86t69 -126.5q15 -49 14 -103q0 -25 -3 -52q-12 -84 -54 -156.5t-105.5 -128t-141.5 -87t-164 -31.5q-59 0 -106 14t-82 35.5 t-56.5 46t-27.5 47.5q2 -16 3 -30.5t3 -28.5l-66 -457h162l-16 -121h-422zM385 385q-4 -25 -4 -48q0 -32 8 -62q14 -50 46 -87.5t80 -59.5t108 -22q59 0 113.5 22t97.5 59.5t71.5 88t36.5 109.5q3 21 3 41q0 35 -9 67q-14 50 -46 86.5t-80 58t-108 21.5q-61 0 -115.5 -21.5 t-96 -58t-69.5 -87t-36 -107.5z" />
<glyph unicode="q" horiz-adv-x="1116" d="M197 385q12 82 53 154.5t104.5 127t142 86t165.5 31.5q55 0 102 -16t83 -39.5t57.5 -51.5t27.5 -48q4 35 13 69.5t13 69.5h265l-17 -123h-159l-146 -1036h135l-16 -121h-426l16 121h164l64 457q4 14 10 28.5l12 30.5q-14 -23 -43 -47.5t-69.5 -46t-92 -35.5t-108.5 -14 q-86 0 -155.5 31.5t-117 87t-68.5 127.5q-14 46 -14 97q1 29 5 60zM326 385q-3 -23 -3 -44q0 -35 8 -66q13 -50 46 -87.5t81 -59.5t107 -22t113.5 22t97.5 59.5t70.5 88t36.5 109.5q3 22 3 43q0 34 -8 65q-13 50 -46 86.5t-81.5 58t-107.5 21.5q-61 0 -115.5 -21.5 t-96.5 -58t-69.5 -87t-35.5 -107.5z" />
<glyph unicode="r" horiz-adv-x="731" d="M72 0l16 121h158l73 524h-141l17 123h249l-4 -45q-4 -43 -5 -77t-5 -77q31 51 73 91t88 68t92 42t85 14l-27 -125q-129 -2 -221 -75.5t-108 -188.5l-39 -274h141l-16 -121h-426z" />
<glyph unicode="s" horiz-adv-x="669" d="M111 63l22 164h115l-12 -92q29 -18 61.5 -22t73.5 -4q10 0 30.5 4t42 16t40 32.5t24.5 55.5q2 12 2 23q0 28 -15 46q-22 24 -59 39t-81 28.5t-80.5 36t-57.5 62.5q-14 27 -14 66q0 20 4 43q8 59 35.5 101.5t66.5 69t82 38.5t80 12q14 0 41 -3t57.5 -11t59 -23.5 t47.5 -39.5l-25 -164h-114l16 96q-20 14 -50 18t-46 4q-47 0 -83 -24.5t-40 -75.5q-2 -35 23.5 -55.5t61.5 -36.5t79 -32.5t76.5 -43t53.5 -67.5q14 -29 13 -69q0 -17 -2 -36q-4 -31 -21.5 -72t-52.5 -77.5t-87 -61t-128 -24.5q-29 0 -63.5 4t-67.5 13t-61.5 24t-46.5 38z " />
<glyph unicode="t" horiz-adv-x="663" d="M162 643l16 125h174l70 500h129l-70 -500h217l-16 -125h-219l-72 -522h160l-16 -121h-289l90 643h-174z" />
<glyph unicode="u" horiz-adv-x="1134" d="M164 645l16 123h271l-70 -506q0 -7 -1 -13q0 -53 30 -92q33 -44 114 -48q57 0 112.5 19t101.5 55t77 84t39 106l37 272h-143l18 123h270l-92 -659h137l-16 -109h-258l12 106l17 93q-55 -98 -153.5 -156.5t-211.5 -58.5q-117 0 -176 63q-51 54 -51 137q0 14 2 29l61 432 h-143z" />
<glyph unicode="v" horiz-adv-x="1200" d="M168 645l16 123h418l-18 -123h-119l92 -234q45 -118 78 -235q59 115 138 234l159 235h-123l18 123h414l-18 -123h-158l-232 -346l-231 -346l-135 346l-135 346h-164z" />
<glyph unicode="w" horiz-adv-x="1718" d="M168 645l16 123h396l-17 -123h-96l82 -234q41 -118 76 -235q47 90 101 176l108 172q4 31 9 60.5t9 60.5h-119l17 123h417l-16 -123h-127l82 -234q41 -118 76 -235l137 236l147 233h-116l16 123h393l-16 -123h-150l-222 -346l-220 -346l-203 553l-354 -553l-129 346 l-125 346h-172z" />
<glyph unicode="x" horiz-adv-x="1054" d="M72 0l16 121h154l124 141l123 141l-72 122l-73 120h-182l16 123h426l-18 -123h-86l108 -184l158 184h-86l16 123h394l-19 -123h-153l-244 -283l71 -120l72 -121h182l-16 -121h-426l16 121h84l-53 90l-51 88l-154 -178h80l-16 -121h-391z" />
<glyph unicode="y" horiz-adv-x="1247" d="M188 -512l17 121h178l124 195l126 194l-118 324l-118 323h-164l17 123h418l-19 -123h-119l101 -264q49 -133 84 -266q70 131 156 264l173 266h-120l16 123h414l-17 -123h-159l-332 -517l-332 -519h117l-17 -121h-426z" />
<glyph unicode="z" horiz-adv-x="886" d="M72 0l16 125q160 131 297 259t297 261h-496l27 195h115l-11 -72h562l-17 -125l-153 -132l-146 -128l-144 -128l-153 -130h451l16 113h115l-33 -238h-743z" />
<glyph unicode="{" horiz-adv-x="626" d="M180 543l21 131q49 2 85 29.5t59.5 68.5t36.5 89t19 89l48 336q12 94 37.5 144.5t58.5 72t73.5 23.5t83.5 2h115l-18 -125h-99q-31 0 -53 -9.5t-37.5 -34t-27 -66.5t-19.5 -107l-39 -277q-10 -74 -29.5 -124t-44 -84.5t-51 -55t-51.5 -35.5q20 -12 42 -33.5t36 -56.5 t19.5 -86t-5.5 -121l-39 -276q-16 -129 -0.5 -173t78.5 -44h99l-19 -125h-115q-45 0 -85 2t-66.5 25.5t-36.5 78t4 158.5l43 307q6 41 6 89t-12 89t-40 69t-77 30z" />
<glyph unicode="|" horiz-adv-x="522" d="M190 -475l267 1909h129l-267 -1909h-129z" />
<glyph unicode="}" horiz-adv-x="655" d="M96 -305l19 125h98q31 0 53.5 9t37.5 33.5t25.5 66.5t20.5 108l41 299q10 63 30.5 110.5t45.5 80t51.5 52t46.5 31.5q-20 14 -40.5 35t-35 55.5t-20.5 85t4 123.5l39 277q8 66 9 107.5t-7 66t-27.5 34t-50.5 9.5h-98l16 125h115q43 0 83 -2t67.5 -23.5t39 -72 t-1.5 -144.5l-45 -313q-6 -41 -8 -91.5t9.5 -96.5t39 -77.5t80.5 -33.5l-20 -131q-53 -2 -90 -34t-59.5 -78t-35 -97t-18.5 -90l-43 -307q-12 -94 -38 -144.5t-59.5 -72t-74.5 -23.5t-84 -2h-115z" />
<glyph unicode="~" horiz-adv-x="1001" d="M258 956q8 39 29.5 71t50.5 53.5t61.5 32.5t63.5 11q45 0 78.5 -19.5t62.5 -51.5q27 -35 49.5 -45.5t51.5 -10.5q14 0 33.5 4.5t39 15.5t34.5 30.5t24 50.5q16 -2 34.5 -3t36.5 -3q-8 -41 -29.5 -72t-50 -52.5t-60.5 -31.5t-62 -10q-47 0 -82 19.5t-64 49.5 q-27 35 -48.5 45.5t-49.5 10.5q-14 0 -33.5 -4.5t-39 -15.5t-35 -30.5t-23.5 -50.5q-18 2 -37 3t-35 3z" />
<glyph unicode="&#xa0;" />
<glyph unicode="&#xa2;" horiz-adv-x="788" d="M145 385q10 70 44 134.5t83.5 116.5t111.5 88t132 50l19 123h129l-17 -115q61 -4 113.5 -26.5t93.5 -57.5l-2 -2l-6 -43l-25 -176h-114l20 146q-20 16 -45 23t-53 11l-78 -546q80 10 147 57l66 -96q-100 -72 -229 -86l-17 -125h-129l17 135q-66 14 -119.5 50t-88 87 t-49 115.5t-4.5 136.5zM272 385q-12 -92 31 -162.5t121 -95.5l74 514q-86 -25 -149 -94.5t-77 -161.5z" />
<glyph unicode="&#xa3;" horiz-adv-x="1175" d="M57 0l17 125h90q33 0 55.5 9t37.5 36t25.5 73t20.5 117l33 222h-133l16 125h133l45 317q20 141 140 207.5t313 66.5q137 0 207.5 -58t99.5 -140l-104 -56q-12 25 -25.5 47.5t-37 41t-61.5 30t-98 11.5q-150 0 -222 -41t-87 -138l-41 -288h246l-16 -125h-246l-41 -281 q-8 -59 -21.5 -103t-48.5 -73h617l28 205h129l-45 -330h-1026z" />
<glyph unicode="&#xa5;" horiz-adv-x="1572" d="M256 1311l16 123h455l-18 -123h-115l134 -293l134 -295l15 -59h2l32 59l432 588h-112l16 123h455l-19 -123h-184l-235 -325l-240 -322h197l-19 -125h-264l-29 -209h267l-17 -125h-266l-12 -84h153l-16 -121h-453l17 121h143l12 84h-262l17 125h264l26 209h-262l19 125 h194l-295 647h-182z" />
<glyph unicode="&#xa9;" horiz-adv-x="1624" d="M358 762q16 115 71.5 213t138.5 168.5t185.5 110.5t213.5 40t202 -40t153 -110.5t91 -168.5t12 -213q-16 -115 -70.5 -211t-137 -168t-185 -112t-213.5 -40t-203 40t-154.5 112t-91 168t-12.5 211zM424 762q-14 -100 10.5 -186.5t78.5 -148.5t134 -98t178 -36t189.5 36 t163 98t120 148.5t62.5 186.5q14 102 -9.5 188t-77.5 149.5t-135 98.5t-180 35q-98 0 -188 -35t-162.5 -98.5t-121 -149.5t-62.5 -188zM571 768q10 70 45 130t85.5 105.5t115 71t131.5 25.5q92 0 164 -45l-14 -105h-58l11 70q-47 25 -109 24q-57 0 -109.5 -21.5t-95.5 -59 t-71.5 -88t-36.5 -107.5t6 -107.5t46 -88t79 -59t102 -21.5q72 0 144 38l26 -47q-41 -23 -85 -35t-91 -12q-68 0 -125 26.5t-95 72t-56.5 105.5t-8.5 128z" />
<glyph unicode="&#xad;" d="M98 324l17 125h377l-17 -125h-377z" />
<glyph unicode="&#xae;" horiz-adv-x="1640" d="M358 762q16 115 71.5 213t138.5 168.5t185.5 110.5t213.5 40t202 -40t153 -110.5t91 -168.5t12 -213q-16 -115 -70.5 -211t-137 -168t-185 -112t-213.5 -40t-203 40t-154.5 112t-91 168t-12.5 211zM424 762q-14 -100 10.5 -186.5t78.5 -148.5t134 -98t178 -36t189.5 36 t163 98t120 148.5t62.5 186.5q14 102 -9.5 188t-77.5 149.5t-135 98.5t-180 35q-98 0 -188 -35t-162.5 -98.5t-121 -149.5t-62.5 -188zM635 430l6 57h51l80 564h-51l8 57h203q33 0 69.5 -10.5t66.5 -32t47.5 -55t10.5 -82.5q-10 -72 -54 -119t-116 -64l86 -258h88l-8 -57 h-125l-104 311h-43h-62l-34 -254h102l-6 -57h-215zM797 799h94q45 0 77.5 12t53 31.5t31 42t12.5 43.5q8 49 -32 86t-107 37h-92z" />
<glyph unicode="&#xb4;" horiz-adv-x="526" d="M205 981l110 136l111 136h131l-129 -136l-129 -136h-94z" />
<glyph unicode="&#x2000;" horiz-adv-x="782" />
<glyph unicode="&#x2001;" horiz-adv-x="1564" />
<glyph unicode="&#x2002;" horiz-adv-x="782" />
<glyph unicode="&#x2003;" horiz-adv-x="1564" />
<glyph unicode="&#x2004;" horiz-adv-x="520" />
<glyph unicode="&#x2005;" horiz-adv-x="391" />
<glyph unicode="&#x2006;" horiz-adv-x="260" />
<glyph unicode="&#x2007;" horiz-adv-x="260" />
<glyph unicode="&#x2008;" horiz-adv-x="194" />
<glyph unicode="&#x2009;" horiz-adv-x="311" />
<glyph unicode="&#x200a;" horiz-adv-x="86" />
<glyph unicode="&#x2010;" d="M98 324l17 125h377l-17 -125h-377z" />
<glyph unicode="&#x2011;" d="M98 324l17 125h377l-17 -125h-377z" />
<glyph unicode="&#x2012;" d="M98 324l17 125h377l-17 -125h-377z" />
<glyph unicode="&#x2013;" horiz-adv-x="1042" d="M205 358l16 125h617l-17 -125h-616z" />
<glyph unicode="&#x2014;" horiz-adv-x="1433" d="M203 358l16 125h1028l-16 -125h-1028z" />
<glyph unicode="&#x2018;" horiz-adv-x="335" d="M94.5 1295.5q-14.5 76.5 14.5 160.5q23 -4 43 -7t41 -7q-23 -72 -13 -132.5t47 -101.5l-33.5 -22l-33.5 -23q-51 56 -65.5 132.5z" />
<glyph unicode="&#x2019;" horiz-adv-x="335" d="M92 1208q49 41 77 101.5t24 132.5q23 4 44 7t44 7q4 -84 -31 -160.5t-100 -132.5q-16 10 -30 22.5t-28 22.5z" />
<glyph unicode="&#x201c;" horiz-adv-x="509" d="M90 1295.5q-14 76.5 14 160.5q20 -4 41 -7t43 -7q-25 -72 -13.5 -132.5t48.5 -101.5q-18 -10 -34.5 -22l-32.5 -23q-52 56 -66 132.5zM303 1295.5q-14 76.5 14 160.5q20 -4 41 -7t43 -7q-25 -72 -13.5 -132.5t48.5 -101.5q-18 -10 -34.5 -22l-32.5 -23q-52 56 -66 132.5z " />
<glyph unicode="&#x201d;" horiz-adv-x="507" d="M49 1208q49 41 77 101.5t24 132.5q20 4 42.5 7t45.5 7q4 -84 -32 -160.5t-102 -132.5q-14 10 -27.5 22.5t-27.5 22.5zM262 1208q49 41 77 101.5t23 132.5q20 4 43 7t46 7q4 -84 -32 -160.5t-102 -132.5q-14 10 -27.5 22.5t-27.5 22.5z" />
<glyph unicode="&#x2022;" horiz-adv-x="980" d="M299 614q6 47 28.5 88t57.5 71t77 47.5t89 17.5q94 0 149.5 -64.5t42.5 -159.5q-6 -47 -29.5 -87t-57 -69.5t-76.5 -47t-91 -17.5q-47 0 -84.5 17.5t-63.5 47t-37 69.5t-5 87z" />
<glyph unicode="&#x2026;" horiz-adv-x="1001" d="M754 86q6 39 36 63.5t64 24.5q33 0 55.5 -24.5t16.5 -63.5q-4 -39 -33.5 -62.5t-62.5 -23.5q-35 0 -57.5 23.5t-18.5 62.5zM420 86q6 39 36 63.5t64 24.5q33 0 55.5 -24.5t16.5 -63.5q-4 -39 -33.5 -62.5t-62.5 -23.5q-35 0 -57.5 23.5t-18.5 62.5zM86 86q6 39 36 63.5 t64 24.5q33 0 55.5 -24.5t16.5 -63.5q-4 -39 -33.5 -62.5t-62.5 -23.5q-35 0 -57.5 23.5t-18.5 62.5z" />
<glyph unicode="&#x202f;" horiz-adv-x="311" />
<glyph unicode="&#x205f;" horiz-adv-x="391" />
<glyph unicode="&#x2122;" horiz-adv-x="3264" d="M1348 0l16 121h172l168 1190h-172l16 123h222l118 -190l147 -231l156 -249l152 -240l413 455l414 455h222l-17 -123h-172l-168 -1190h174l-16 -121h-453l17 121h151l133 948l7 38q4 26 8 36l-30 -35l-32 -37l-147 -167l-175 -192l-185 -201l-175 -192l-163 261l-117 189 l-82 132l-56 89l-37 61l-30 47l-25 45q-2 -18 -3 -35.5t-3 -38.5l-133 -948h156l-17 -121h-454zM227 1118l45 316h1133l-45 -316h-123l29 193h-379l-168 -1190h155l-16 -121h-455l17 121h172l168 1190h-383l-29 -193h-121z" />
<glyph unicode="&#xe000;" horiz-adv-x="770" d="M0 770h770v-770h-770v770z" />
<glyph unicode="&#xfb01;" horiz-adv-x="1222" d="M725 0l16 121h152l71 524h-149l16 123h279l-90 -647h147l-16 -121h-426zM1001 1053q6 37 36 62.5t65 25.5q31 0 54 -26q20 -22 20 -52q0 -5 -1 -10q-8 -39 -37.5 -62.5t-62.5 -23.5t-56 23q-19 19 -19 47q0 8 1 16zM72 0l16 121h125l74 522h-125l16 125h123l41 291 q16 115 63.5 203t118 148t158.5 92t186 36l-16 -123q-72 -2 -135.5 -27.5t-114.5 -71.5t-85 -111.5t-46 -147.5l-41 -289h248l-16 -125h-250l-72 -522h174l-16 -121h-426z" />
<glyph unicode="&#xfb02;" horiz-adv-x="1222" d="M725 0l16 121h154l180 1292h-139l18 123h266l-198 -1415h145l-16 -121h-426zM72 0l16 121h125l74 522h-125l16 125h123l41 291q16 115 63.5 203t118 148t158.5 92t186 36l-16 -123q-72 -2 -135.5 -27.5t-114.5 -71.5t-85 -111.5t-46 -147.5l-41 -289h248l-16 -125h-250 l-72 -522h174l-16 -121h-426z" />
<glyph unicode="&#xfb03;" horiz-adv-x="1875" d="M1379 0l16 121h152l71 524h-149l16 123h279l-90 -647h147l-16 -121h-426zM1655 1053q6 37 36 62.5t65 25.5q31 0 54 -26q20 -22 20 -52q0 -5 -1 -10q-8 -39 -37.5 -62.5t-62.5 -23.5t-56 23q-19 19 -19 47q0 8 1 16zM725 0l16 121h125l74 522h-125l16 125h123l41 291 q16 115 63.5 203t118 148t158.5 92t186 36l-16 -123q-72 -2 -135.5 -27.5t-114.5 -71.5t-85 -111.5t-46 -147.5l-41 -289h248l-16 -125h-250l-72 -522h174l-16 -121h-426zM72 0l16 121h125l74 522h-125l16 125h123l41 291q16 115 63.5 203t118 148t158.5 92t186 36l-16 -123 q-72 -2 -135.5 -27.5t-114.5 -71.5t-85 -111.5t-46 -147.5l-41 -289h248l-16 -125h-250l-72 -522h174l-16 -121h-426z" />
<glyph unicode="&#xfb04;" horiz-adv-x="1875" d="M1379 0l16 121h154l180 1292h-139l18 123h266l-198 -1415h145l-16 -121h-426zM725 0l16 121h125l74 522h-125l16 125h123l41 291q16 115 63.5 203t118 148t158.5 92t186 36l-16 -123q-72 -2 -135.5 -27.5t-114.5 -71.5t-85 -111.5t-46 -147.5l-41 -289h248l-16 -125h-250 l-72 -522h174l-16 -121h-426zM72 0l16 121h125l74 522h-125l16 125h123l41 291q16 115 63.5 203t118 148t158.5 92t186 36l-16 -123q-72 -2 -135.5 -27.5t-114.5 -71.5t-85 -111.5t-46 -147.5l-41 -289h248l-16 -125h-250l-72 -522h174l-16 -121h-426z" />
</font>
</defs>
</svg>
